<?xml version="1.0" standalone="no"?>
<!DOCTYPE svg PUBLIC "-//W3C//DTD SVG 1.1//EN" "http://www.w3.org/Graphics/SVG/1.1/DTD/svg11.dtd" >
<svg xmlns="http://www.w3.org/2000/svg">
<metadata>
<json>
<![CDATA[
{
	"fontFamily": "boxicons",
	"majorVersion": 2,
	"minorVersion": 0.7,
	"version": "Version 2.0",
	"fontId": "boxicons",
	"psName": "boxicons",
	"subFamily": "Regular",
	"fullName": "boxicons",
	"description": "Font generated by IcoMoon."
}
]]>
</json>
</metadata>
<defs>
<font id="boxicons" horiz-adv-x="1024">
<font-face units-per-em="1024" ascent="960" descent="-64" />
<missing-glyph horiz-adv-x="1024" />
<glyph unicode="&#x20;" horiz-adv-x="512" d="" />
<glyph unicode="&#xe900;" glyph-name="bxl-500px" data-tags="bxl-500px" d="M314.837 328.917c0.171-0.427 4.181-11.477 6.443-16.896 13.282-30.933 31.39-57.341 53.67-79.568l0.005-0.005c45.276-45.426 107.904-73.532 177.096-73.532 35.234 0 68.765 7.288 99.169 20.438l-1.62-0.624c60.29 25.949 107.36 73.033 132.666 131.706l0.624 1.627c12.435 28.533 19.671 61.774 19.671 96.706 0 0.277 0 0.553-0.001 0.83v-0.043c0 33.835-6.528 66.688-19.669 97.579-13.277 30.913-31.37 57.306-53.629 79.527l-0.003 0.003c-45.261 45.339-107.831 73.387-176.951 73.387-0.071 0-0.141 0-0.212 0h0.011c-0.147 0-0.32 0-0.494 0-35.514 0-69.339-7.232-100.083-20.303l1.675 0.633c-24.32-10.283-65.536-36.779-89.685-61.696l-0.085-0.085v206.165h346.325c12.587 0.128 12.587 17.792 12.587 23.467 0 5.845 0 23.424-12.629 23.595h-374.485c-0.013 0-0.028 0-0.043 0-9.074 0-16.439-7.32-16.511-16.377v-290.183c0-9.429 11.648-16.171 22.485-18.517 21.163-4.437 26.027 2.261 31.232 9.472l0.64 0.896c7.979 11.733 32.725 36.608 32.896 36.821 36.894 36.983 87.91 59.864 144.271 59.864 0.37 0 0.74-0.001 1.109-0.003h-0.057c0.245 0.001 0.535 0.002 0.825 0.002 56.271 0 107.196-22.885 143.978-59.855l0.008-0.008c37.102-36.745 60.075-87.699 60.075-144.019 0-0.143 0-0.287 0-0.43v0.022c0-54.613-21.248-105.941-59.733-144.427-37.422-37.003-88.898-59.861-145.712-59.861-0.013 0-0.026 0-0.039 0h0.002c-0.215-0.001-0.47-0.001-0.725-0.001-37.878 0-73.28 10.601-103.401 28.998l0.873-0.495 0.171 176.512c0 23.552 10.155 49.109 27.307 68.437 18.482 21.048 45.446 34.262 75.496 34.262 0.128 0 0.257 0 0.385-0.001h-0.020c28.459 0 55.083-10.837 74.837-30.464 19.627-19.413 30.464-45.397 30.464-73.003 0.003-0.294 0.005-0.642 0.005-0.99 0-57.567-46.667-104.235-104.235-104.235-0.467 0-0.933 0.003-1.398 0.009l0.071-0.001c-11.435 0-32.128 4.992-32.981 5.248-11.989 3.584-17.067-13.013-18.731-18.56-6.443-20.992 3.285-25.173 5.205-25.771 19.115-5.888 31.616-6.997 47.957-6.997 83.667 0.097 151.461 67.921 151.509 151.59v0.005c0 82.901-67.925 150.443-151.381 150.443-0.204 0.001-0.445 0.002-0.686 0.002-41.905 0-79.879-16.827-107.535-44.094l0.018 0.018c-27.477-26.965-43.221-63.061-43.221-98.859v-0.896c-0.171-4.48-0.171-110.208-0.213-144.981l-0.213 0.256c-15.701 17.365-31.189 43.904-41.515 71.168-4.139 10.667-13.184 8.789-25.643 4.949-5.419-1.707-21.931-6.784-18.304-18.688l0.085-0.171zM492.843 370.389c0.085-5.035 4.736-9.515 7.467-12.203l0.896-0.811c4.736-4.693 9.259-6.997 13.44-6.997 3.456 0 5.547 1.579 6.315 2.304 2.133 1.963 25.771 25.941 28.075 28.245l26.368-26.368c2.475-2.731 5.12-4.139 8.192-4.181 4.267 0 8.832 2.475 13.653 7.424 11.392 11.605 5.717 17.92 2.944 20.907l-26.795 26.88 27.947 28.075c6.144 6.613 0.725 13.653-4.736 19.029-7.808 7.851-15.317 9.813-20.224 5.419l-27.733-27.819-28.032 28.075c-1.401 1.347-3.308 2.176-5.408 2.176-0.019 0-0.037 0-0.056 0h0.003c-3.712 0-8.149-2.56-13.141-7.552-8.619-8.576-10.496-14.549-6.016-19.328l28.032-27.989-27.861-27.947c-1.97-1.849-3.228-4.438-3.328-7.321v-0.018zM554.027 749.739c-44.928 0-92.629-9.003-127.659-24.149-3.65-1.357-6.242-4.725-6.442-8.724l-0.001-0.023c-0.469-3.968 0.555-9.216 3.243-16.085 2.176-5.589 7.979-20.395 19.157-16.043 33.106 13.037 71.432 20.794 111.513 21.246l0.189 0.002c40.96 0 80.725-8.021 118.101-23.808 29.696-12.629 57.771-30.763 88.235-57.216 1.825-1.761 4.3-2.859 7.032-2.901h0.008c5.888 0 11.563 5.845 16.469 11.349 8.149 9.131 13.696 16.725 5.76 24.277-28.307 26.785-61.596 48.662-98.279 64.050l-2.158 0.803c-39.646 17.211-85.824 27.222-134.34 27.222-0.291 0-0.582 0-0.873-0.001h0.045zM795.861 195.669c-5.419 5.376-10.027 8.491-14.080 9.728-0.97 0.336-2.088 0.53-3.25 0.53-2.851 0-5.43-1.165-7.287-3.046l-0.001-0.001-2.688-2.645c-54.632-54.849-130.221-88.79-213.738-88.79-0.128 0-0.255 0-0.383 0h0.019c-0.028 0-0.062 0-0.095 0-83.628 0-159.33 33.935-214.087 88.785l-0.004 0.004c-27.215 26.715-49.155 58.697-64.183 94.309l-0.713 1.904c-8.32 19.521-15.159 42.375-19.419 66.124l-0.293 1.972c-0.171 0.768-0.213 1.323-0.384 1.749-1.877 9.899-10.965 10.624-24.064 8.619-5.419-0.811-22.059-3.328-20.437-15.275l0.085-0.256c12.214-75.32 47.224-140.901 97.608-191.048l0.013-0.013c30.849-30.991 67.531-56.144 108.265-73.68l2.242-0.859c39.77-17.317 86.101-27.393 134.785-27.393 0.24 0 0.479 0 0.719 0.001h-0.037c0.214 0 0.468-0.001 0.722-0.001 48.631 0 94.904 10.092 136.841 28.295l-2.224-0.86c44.21 18.941 81.887 45.063 113.341 77.286l0.067 0.069c3.541 3.84 6.571 10.581-7.339 24.491z" />
<glyph unicode="&#xe901;" glyph-name="bxl-adobe" data-tags="bxl-adobe" d="M896 108.117v679.765h-283.904zM128 787.883v-679.765l284.075 679.765zM387.925 244.907h132.437l54.101-136.747h118.528l-180.864 429.269z" />
<glyph unicode="&#xe902;" glyph-name="bxl-airbnb" data-tags="bxl-airbnb" d="M512.043 247.083c-43.221 54.229-68.651 101.803-77.141 142.507-8.405 32.811-5.12 59.093 9.301 78.848 15.232 22.699 37.973 33.749 67.797 33.749s52.523-11.051 67.797-33.963c14.293-19.541 17.877-45.867 9.173-78.848-9.301-41.557-34.688-89.045-77.141-142.549l0.213 0.256zM819.072 210.603c-5.973-39.851-33.067-72.875-70.4-88.96-71.979-31.317-143.317 18.645-204.331 86.443 100.907 126.336 119.595 224.768 76.245 288.341-25.429 36.48-61.824 54.229-108.544 54.229-94.123 0-145.877-79.659-125.525-172.117 11.776-50.048 43.221-106.923 93.269-170.496-31.36-34.688-61.099-59.349-87.339-74.581-20.395-11.008-39.851-17.835-58.453-19.456-85.675-12.757-152.832 70.272-122.325 155.989 4.267 11.051 12.672 31.317 27.051 62.763l0.811 1.664c46.805 101.632 103.68 217.088 169.003 345.173l1.664 4.267 18.56 35.669c14.421 26.283 20.352 38.059 43.264 52.523 11.008 6.699 24.576 10.027 39.851 10.027 30.507 0 54.229-17.835 64.469-32.128 5.035-7.68 11.051-17.877 18.603-30.549l17.877-34.773 2.56-5.077c65.28-128.043 122.155-243.285 168.747-345.131l0.853-0.811 17.109-39.040 10.112-24.448c7.808-19.584 9.429-39.040 6.827-59.435l0.043-0.085zM858.027 287.019c-5.931 18.688-16.128 40.661-28.8 66.944v0.939c-83.879 182.635-140.557 296.427-199.091 409.101l29.448-62.306-3.584 5.163c-37.931 77.824-65.109 124.544-144 124.544-77.952 0-111.104-54.187-144.939-124.672l-2.603-5.077c-53.376-103.509-109.397-218.795-169.6-346.88v-1.664l-17.835-38.997c-6.741-16.128-10.112-24.533-11.051-27.136-43.179-118.699 45.824-222.976 153.557-222.976 0.896 0 4.224 0 8.448 0.896h11.861c56.021 6.784 113.664 42.368 172.16 106.027 58.496-63.573 116.267-99.243 172.075-106.027h11.904c4.267-0.896 7.68-0.896 8.533-0.896 107.733-0.085 196.693 104.277 153.515 223.019z" />
<glyph unicode="&#xe903;" glyph-name="bxl-algolia" data-tags="bxl-algolia" d="M519.552 573.483c-84.297-0.146-152.576-68.515-152.576-152.832 0-0.030 0-0.060 0-0.090v0.005c0-0.013 0-0.028 0-0.043 0-84.334 68.269-152.723 152.557-152.917h0.019c84.258 0.073 152.534 68.394 152.534 152.661 0 0.105 0 0.21 0 0.315v-0.016c0 0.025 0 0.056 0 0.086 0 84.302-68.255 152.662-152.517 152.832h-0.016zM626.987 476.715l-100.949-52.437c-2.987-1.664-6.528 0.725-6.528 3.968v114.005h0.043c0 2.56 2.304 4.437 4.651 4.437 44.793-1.721 83.398-26.652 104.295-63.047l0.324-0.612c1.195-2.347 0.469-5.163-1.835-6.315zM792.661 832h-563.925c-55.645-0.049-100.736-45.169-100.736-100.821 0-0.045 0-0.090 0-0.135v0.007-566.485c0-0.038 0-0.083 0-0.128 0-55.695 45.065-100.864 100.72-101.034h563.941c55.666 0.145 100.736 45.305 100.736 100.992 0 0.075 0 0.15 0 0.225v-0.012 566.187c0 0.051 0 0.111 0 0.171 0 55.695-45.065 100.864-100.72 101.034h-0.016zM446.549 686.763c0 0.013 0 0.028 0 0.043 0 18.365 14.876 33.256 33.235 33.28h77.442c18.347 0 33.195-14.933 33.195-33.323v-26.368c0-0.013 0-0.027 0-0.042 0-2.498-2.025-4.523-4.523-4.523-0.379 0-0.746 0.047-1.098 0.134l0.031-0.007c-19.479 5.638-41.854 8.881-64.986 8.881-24.064 0-47.309-3.509-69.25-10.044l1.714 0.438c-2.987-0.683-5.803 1.408-5.803 4.437v27.093zM302.080 576.299c-6.009 6.020-9.724 14.331-9.724 23.509 0 9.2 3.733 17.528 9.767 23.552v0l15.915 15.915c5.991 5.986 14.264 9.688 23.403 9.688 9.181 0 17.489-3.737 23.486-9.772l0.002-0.002 13.227-13.269c1.835-2.133 1.621-5.419-0.725-6.784-21.406-15.676-39.675-33.999-54.804-54.758l-0.492-0.709c-1.877-2.091-4.864-2.56-6.955-0.469l-13.099 13.099zM519.552 203.52c-119.585 0.097-216.491 97.062-216.491 216.661 0 0.135 0 0.27 0 0.405v-0.021c0 120.021 96.939 217.259 216.491 217.259 0 0 0 0 0.001 0 119.564 0 216.491-96.926 216.491-216.491 0-0.18 0-0.36-0.001-0.54v0.028c0-120.107-96.939-217.301-216.491-217.301z" />
<glyph unicode="&#xe904;" glyph-name="bxl-amazon" data-tags="bxl-amazon" d="M86.485 233.685c2.603 4.181 6.656 4.48 12.331 0.853 129.493-75.093 270.421-112.853 422.656-112.853 101.589 0 201.813 19.072 300.843 56.832l11.179 4.992c4.907 2.176 8.32 3.584 10.411 4.651 8.064 3.157 13.909 1.579 18.688-4.651 4.352-6.101 3.243-11.904-4.267-17.067-9.088-6.741-21.333-14.592-35.84-23.253-44.245-26.411-93.995-46.848-148.992-61.483-48.166-13.476-103.523-21.367-160.676-21.674l-0.177-0.001c-80.597 0-157.013 14.080-229.077 42.24-74.551 29.623-138.625 69.937-193.879 119.833l0.557-0.495c-3.584 2.603-5.333 5.248-5.333 7.851 0 1.664 0.683 3.157 1.749 4.651l-0.171-0.427zM320.256 455.083c0 35.84 8.832 66.347 26.411 91.819 17.664 25.259 41.685 44.416 72.661 57.429 28.416 11.989 62.507 20.48 103.68 25.685 13.909 1.579 36.736 3.669 68.267 6.187v13.227c0 32.981-3.584 55.424-10.581 66.731-10.752 15.317-27.733 23.083-51.328 23.083h-6.4c-17.067-1.664-31.829-6.912-44.331-16.341-12.263-9.479-20.947-23.069-23.998-38.675l-0.066-0.407c-2.091-10.667-7.339-16.512-15.403-18.176l-89.813 11.264c-8.917 2.176-13.269 6.4-13.269 13.909 0 1.579 0.256 3.157 0.768 5.248 8.917 45.995 30.507 80.256 64.853 102.571 34.731 21.931 74.752 34.731 120.661 37.333h19.243c58.837 0 105.344-15.403 138.411-45.909 4.907-5.248 9.685-10.667 14.507-16.981 4.267-5.931 8.021-11.264 9.984-16.085 2.688-4.736 5.419-11.733 6.997-20.267 2.176-9.088 3.755-15.019 4.821-18.176 0.981-3.669 2.176-10.667 2.731-21.931 0.256-11.179 0.683-17.493 0.683-19.669v-187.989c0-13.397 2.091-25.685 5.845-36.907 3.755-11.093 7.424-19.243 11.179-24.021l18.261-23.936c2.627-3.609 4.343-8.036 4.73-12.838l0.006-0.090c0-4.352-2.091-8.021-6.315-11.093-42.752-37.419-66.261-57.685-69.931-60.928-5.845-4.821-13.355-5.333-22.4-1.664-6.747 5.705-12.856 11.477-18.636 17.564l-0.094 0.1-11.008 12.416c-2.176 2.688-6.016 7.424-11.349 15.019l-10.667 15.488c-28.843-31.573-57.088-51.413-85.419-59.435-17.664-5.333-38.997-8.021-65.237-8.021-39.509 0-72.576 12.16-98.261 36.821-25.515 24.576-38.4 59.264-38.4 104.661l-1.835 2.688 0.043 0.299zM453.845 470.741c0-20.267 4.992-36.352 15.147-48.597 10.069-12.16 24.021-18.261 41.173-18.261 1.493 0 3.755 0.341 6.827 0.768 3.328 0.512 4.736 0.853 6.016 0.853 21.845 5.675 38.485 19.669 50.731 41.899 5.581 9.314 9.979 20.115 12.612 31.59l0.145 0.752c3.243 11.435 4.267 21.077 4.736 28.416 0.683 7.083 0.683 19.328 0.683 35.84v19.243c-29.995 0-52.907-2.091-68.437-6.315-45.355-12.928-68.437-41.685-68.437-86.571l-1.237 0.683v-0.299zM780.075 220.501c1.067 2.176 2.688 3.925 4.651 6.101 12.843 8.576 25.429 14.592 37.419 17.749 16.896 4.538 36.529 7.609 56.717 8.553l0.627 0.023c4.992 0.427 9.984 0 14.763-1.067 22.997-2.176 37.248-6.016 41.685-11.648 2.261-3.328 3.157-8.149 3.157-13.995v-5.333c0-18.176-4.992-39.509-14.848-64.085s-23.595-44.416-41.088-59.819c-2.603-2.091-4.907-3.157-6.997-3.157-1.067 0-2.176 0-3.157 0.427-3.243 1.579-3.84 4.267-2.347 8.576 19.243 44.843 28.672 76.245 28.672 93.909 0 5.419-1.067 9.685-3.157 12.331-5.077 5.845-19.499 9.259-43.52 9.259-11.202-0.172-21.981-0.772-32.639-1.789l1.621 0.125c-12.928-1.749-24.832-3.328-35.584-4.907-3.157 0-5.248 0.597-6.4 1.579-1.067 1.067-1.323 1.664-0.768 2.731 0 0.597 0.256 1.067 0.768 2.261v2.091l0.427 0.085z" />
<glyph unicode="&#xe905;" glyph-name="bxl-android" data-tags="bxl-android" d="M782.677 588.373c-30.165 0-54.571-24.405-54.571-54.528v-193.28c0-30.139 24.432-54.571 54.571-54.571s54.571 24.432 54.571 54.571v0 193.28c0 30.123-24.405 54.528-54.571 54.528zM241.323 588.373c-30.165 0-54.571-24.405-54.571-54.528v-193.28c0-30.139 24.432-54.571 54.571-54.571s54.571 24.432 54.571 54.571v0 193.28c0 0.013 0 0.028 0 0.043 0 30.091-24.394 54.485-54.485 54.485-0.030 0-0.060 0-0.090 0h0.005zM620.587 750.891l32.768 59.221c1.201 2.078 1.91 4.57 1.91 7.229 0 5.496-3.030 10.285-7.51 12.787l-0.074 0.038c-2.074 1.19-4.559 1.892-7.209 1.892-5.531 0-10.347-3.059-12.849-7.577l-0.038-0.075-33.664-60.587c-25.088 10.027-52.736 15.701-81.92 15.701s-56.832-5.632-81.92-15.659l-33.664 60.501c-2.54 4.594-7.356 7.652-12.887 7.652-2.65 0-5.135-0.702-7.281-1.93l0.072 0.038c-4.539-2.566-7.553-7.36-7.553-12.858 0-2.643 0.697-5.124 1.917-7.268l-0.038 0.073 32.768-59.221c-59.008-33.621-98.432-93.739-98.432-162.475 0-0.469 0-0.896 0.085-1.451-0.085-0.256-0.085-0.555-0.085-0.811v-0.043h413.995v2.304c0.043 68.736-39.381 128.811-98.389 162.517zM416.427 666.923c-8.119 0.060-14.678 6.656-14.678 14.784 0 8.165 6.619 14.784 14.784 14.784 0.038 0 0.075 0 0.112 0h-0.006c8.119-0.060 14.678-6.656 14.678-14.784 0-8.165-6.619-14.784-14.784-14.784-0.038 0-0.075 0-0.112 0h0.006zM607.573 666.923c-7.679 0.602-13.682 6.981-13.682 14.763s6.003 14.161 13.631 14.759l0.051 0.003c8.153 0 14.763-6.609 14.763-14.763s-6.609-14.763-14.763-14.763v0zM304.981 272.213c0-27.563 22.4-49.963 50.091-49.963h25.003v-102.443c0-30.139 24.432-54.571 54.571-54.571s54.571 24.432 54.571 54.571v0 102.443h45.483v-102.443c0-30.165 24.405-54.528 54.485-54.528 30.251 0 54.656 24.363 54.656 54.528v102.443h25.003c27.648 0 50.091 22.357 50.091 49.963v302.592h-413.952v-302.592z" />
<glyph unicode="&#xe906;" glyph-name="bxl-angular" data-tags="bxl-angular" d="M447.275 427.435h129.451l-64.725 155.776zM512 828.843l-354.603-126.464 54.101-468.779 300.501-166.4 300.501 166.4 54.101 468.779-354.603 126.464zM733.312 247.68h-82.645l-44.587 111.189h-188.16l-44.587-111.189h-82.645l221.312 496.981 221.312-496.981z" />
<glyph unicode="&#xe907;" glyph-name="bxl-apple" data-tags="bxl-apple" d="M839.040 242.731c-13.009-30.022-27.582-55.778-44.492-79.769l0.93 1.39c-22.912-32.725-41.728-55.339-56.149-67.925-22.4-20.565-46.464-31.147-72.192-31.744-18.432 0-40.704 5.248-66.645 15.915-26.027 10.624-49.92 15.829-71.808 15.829-22.912 0-47.488-5.205-73.813-15.829-26.283-10.667-47.531-16.256-63.787-16.768-24.619-1.067-49.237 9.771-73.771 32.597-15.659 13.653-35.243 37.12-58.752 70.315-25.173 35.371-45.867 76.544-62.080 123.349-17.365 50.645-26.069 99.627-26.069 147.072 0 54.315 11.733 101.205 35.243 140.459 18.116 31.030 43.055 56.256 72.877 74.187l0.936 0.522c28.511 17.374 62.912 27.821 99.722 28.244l0.118 0.001c19.627 0 45.355-6.059 77.227-18.005s52.352-18.005 61.269-18.005c6.741 0 29.397 7.125 67.968 21.248 36.395 13.099 67.115 18.517 92.288 16.384 68.267-5.504 119.509-32.384 153.6-80.853-61.013-36.992-91.179-88.747-90.581-155.179 0.512-51.755 19.328-94.805 56.192-128.981 15.812-15.151 34.402-27.559 54.904-36.362l1.202-0.459c-4.523-13.099-9.301-25.6-14.336-37.632zM682.581 858.453c0-40.533-14.848-78.421-44.331-113.451-35.669-41.643-78.763-65.749-125.483-61.952-0.571 4.506-0.896 9.719-0.896 15.009 0 0.124 0 0.247 0.001 0.371v-0.019c0 38.955 16.896 80.597 47.061 114.688 15.019 17.237 34.133 31.616 57.301 43.051 23.125 11.264 44.971 17.493 65.536 18.56 0.555-5.461 0.811-10.88 0.811-16.256z" />
<glyph unicode="&#xe908;" glyph-name="bxl-audible" data-tags="bxl-audible" d="M85.547 523.179v-72.107l426.752-266.837 426.155 266.837v72.107l-426.155-265.771zM680.021 427.989l62.507 40.021c-49.536 72.576-134.528 122.709-230.229 122.709-96.299 0-180.736-48.427-229.163-123.307 3.968 3.968 6.229 6.229 10.155 9.003 119.936 99.669 292.693 77.141 386.731-48.427zM386.176 402.645c20.857 15.46 47.099 24.747 75.51 24.747 0.153 0 0.307 0 0.46-0.001h-0.024c46.208 0 87.339-23.637 114.859-63.573l59.691 37.163c-25.899 41.088-72.021 66.432-124.416 66.432-52.309 0-98.517-26.453-126.080-64.768zM224 575.488c175.659 138.496 423.979 100.779 556.245-83.328l1.109-1.109 64.725 40.021c-72.19 109.458-194.598 180.693-333.645 180.693-0.048 0-0.096 0-0.144 0h0.008c-139.104-0.028-261.568-71.248-332.942-179.206l-0.924-1.488c12.971 14.592 29.269 32.043 45.568 44.416z" />
<glyph unicode="&#xe909;" glyph-name="bxl-aws" data-tags="bxl-aws" d="M800 475.733c-11.991 0.11-23.624 1.347-34.886 3.611l1.179-0.198c-11.898 2.531-22.31 5.912-32.22 10.23l1.073-0.417-7.253 1.707h-5.12q-6.4 0-6.4-8.96v-14.080c-0.288-1.218-0.453-2.616-0.453-4.053s0.165-2.835 0.478-4.177l-0.024 0.124c2.164-3.503 5.21-6.276 8.834-8.051l0.126-0.056c9.353-4.796 20.203-8.633 31.604-10.953l0.823-0.14c12.794-3.191 27.497-5.054 42.624-5.12h0.042c1.144-0.037 2.489-0.058 3.84-0.058 13.87 0 27.225 2.206 39.733 6.286l-0.905-0.256c11.979 3.204 22.406 8.649 31.296 15.905l-0.149-0.118c8.577 6.672 15.593 14.914 20.705 24.339l0.202 0.407c4.581 9.517 7.257 20.693 7.257 32.494 0 0.276-0.001 0.552-0.004 0.828v-0.042c0.002 0.211 0.004 0.46 0.004 0.71 0 14.667-4.806 28.212-12.929 39.146l0.125-0.176c-11.161 12.637-25.612 22.123-42.017 27.136l-0.65 0.171-40.533 12.8c-11.943 3.15-22.361 8.445-31.33 15.499l0.183-0.139c-5.263 5.056-8.533 12.152-8.533 20.012 0 0.014 0 0.029 0 0.043v-0.002c-0.032 0.506-0.051 1.098-0.051 1.694 0 10.039 5.253 18.852 13.161 23.838l0.116 0.069c9.901 4.913 21.562 7.787 33.894 7.787 1.435 0 2.861-0.039 4.277-0.116l-0.197 0.009c0.891 0.023 1.94 0.036 2.992 0.036 18.562 0 36.165-4.101 51.954-11.447l-0.76 0.317c3.218-1.678 6.963-2.88 10.924-3.395l0.169-0.018c4.267 0 6.4 3.413 6.4 9.387v15.36c0.008 0.186 0.012 0.404 0.012 0.624 0 3.255-0.959 6.286-2.61 8.826l0.038-0.063c-2.268 2.873-5.122 5.18-8.391 6.764l-0.142 0.062c-3.395 1.914-7.348 3.649-11.479 4.989l-0.468 0.131c-4.257 1.585-9.678 3.198-15.22 4.497l-0.993 0.196-18.773 4.267c-3.128 0.24-6.775 0.377-10.453 0.377s-7.325-0.137-10.935-0.406l0.482 0.029c-0.617 0.011-1.345 0.018-2.074 0.018-11.877 0-23.353-1.721-34.19-4.927l0.851 0.216c-11.417-3.39-21.359-8.496-30.102-15.104l0.235 0.17c-8.29-6.096-15.034-13.794-19.874-22.68l-0.18-0.36c-4.842-8.793-7.69-19.273-7.69-30.418 0-0.406 0.004-0.812 0.011-1.216l-0.001 0.061c-0.006-0.337-0.009-0.734-0.009-1.132 0-15.699 5.299-30.161 14.207-41.693l-0.117 0.158c11.521-13.809 26.96-23.994 44.603-28.866l0.623-0.147 42.667-12.8c11.059-2.638 20.684-7.687 28.674-14.58l-0.087 0.073c4.762-5.032 7.689-11.843 7.689-19.337 0-0.252-0.003-0.503-0.010-0.753l0.001 0.037c0.003-0.156 0.004-0.34 0.004-0.524 0-11.139-5.928-20.893-14.801-26.279l-0.136-0.077c-10.217-5.25-22.293-8.328-35.087-8.328-2.067 0-4.115 0.080-6.141 0.238l0.268-0.017zM552.107 682.667c-0.702 4.354-2.688 8.155-5.551 11.098l0.005-0.005c-2.586 1.925-5.843 3.081-9.369 3.081-0.607 0-1.207-0.034-1.796-0.101l0.072 0.007h-23.467c-0.304 0.018-0.659 0.028-1.017 0.028-3.751 0-7.238-1.125-10.144-3.057l0.068 0.042c-3.016-2.836-5.046-6.69-5.539-11.011l-0.008-0.082-42.667-187.733-48.64 187.733c-0.825 4.396-2.955 8.197-5.966 11.087l-0.007 0.007s-5.547 2.987-11.093 2.987h-27.733c-4.693 0-6.827-2.56-6.827-7.253 0.46-4.273 1.362-8.175 2.672-11.884l-0.112 0.364 66.56-219.307c0.928-4.1 2.711-7.688 5.159-10.716l-0.039 0.049c2.771-1.642 6.107-2.613 9.67-2.613 0.501 0 0.997 0.019 1.489 0.057l-0.065-0.004h24.32c0.422-0.030 0.913-0.048 1.409-0.048 3.711 0 7.195 0.967 10.216 2.662l-0.105-0.054c2.591 3.181 4.407 7.093 5.101 11.38l0.019 0.14 42.667 182.613 42.667-183.040c0.379-4.354 2.263-8.208 5.121-11.095l-0.001 0.001c2.725-1.925 6.115-3.076 9.774-3.076 0.615 0 1.222 0.033 1.82 0.096l-0.074-0.006h24.32c0.257-0.013 0.557-0.021 0.859-0.021 3.661 0 7.058 1.124 9.867 3.047l-0.060-0.039c3.119 2.826 5.278 6.661 5.96 10.987l0.014 0.106 68.693 219.307c0.119 1.024 0.188 2.211 0.188 3.413s-0.068 2.389-0.201 3.556l0.013-0.143c0.079 0.704 0.124 1.52 0.124 2.347s-0.045 1.643-0.133 2.446l0.009-0.099c0.042 0.276 0.066 0.595 0.066 0.92 0 3.535-2.865 6.4-6.4 6.4-0.325 0-0.643-0.024-0.955-0.071l0.035 0.004h-26.453c-0.234 0.010-0.508 0.016-0.784 0.016-3.826 0-7.391-1.119-10.385-3.048l0.076 0.046c-2.528-3.111-4.444-6.828-5.502-10.892l-0.045-0.202-42.667-192.427zM246.187 591.787c-8.999 1.249-19.499 2.020-30.156 2.132l-0.137 0.001c-1.618 0.091-3.512 0.142-5.418 0.142-24.328 0-46.69-8.413-64.337-22.489l0.208 0.161c-15.742-13.54-25.65-33.482-25.65-55.739 0-0.955 0.018-1.905 0.054-2.851l-0.004 0.136c-0.056-1.068-0.088-2.318-0.088-3.575 0-19.905 8.018-37.937 21-51.043l-0.006 0.006c13.795-12.76 32.315-20.587 52.664-20.587 1.436 0 2.863 0.039 4.28 0.116l-0.197-0.009c0.906-0.028 1.972-0.044 3.041-0.044 33.149 0 62.738 15.243 82.139 39.103l0.153 0.194c2.89-6.598 5.742-12.060 8.909-17.311l-0.375 0.671c3.238-4.961 6.608-9.281 10.304-13.297l-0.064 0.071c2.012-2.037 4.805-3.299 7.893-3.299s5.881 1.262 7.892 3.298l0.001 0.001 17.92 11.947c2.966 1.858 5.036 4.912 5.539 8.47l0.007 0.063c0.328 1.021 0.517 2.195 0.517 3.413s-0.189 2.393-0.54 3.495l0.022-0.082c-3.044 5.53-6.062 12.142-8.611 18.983l-0.349 1.071c-1.93 6.768-3.040 14.542-3.040 22.575 0 1.064 0.019 2.123 0.058 3.177l-0.004-0.152v90.027c0.193 2.259 0.304 4.889 0.304 7.544 0 24.013-9.017 45.921-23.85 62.521l0.080-0.091c-17.826 15.066-41.069 24.224-66.45 24.224-4.4 0-8.735-0.275-12.99-0.809l0.507 0.052c-0.018 0-0.040 0-0.062 0-15.148 0-29.824-2.024-43.771-5.817l1.166 0.27c-13.628-3.214-25.576-7.609-36.8-13.236l0.96 0.436c-3.085-1.384-5.661-3.414-7.648-5.931l-0.032-0.042c-0.496-1.465-0.782-3.152-0.782-4.907s0.286-3.442 0.814-5.018l-0.032 0.111v-14.080c0-5.973 0-8.533 5.973-8.533 0.705-0.16 1.515-0.251 2.347-0.251s1.641 0.091 2.42 0.265l-0.074-0.014 9.813 3.413c7.459 3.778 16.36 7.396 25.574 10.31l1.306 0.356c9.212 2.406 19.795 3.805 30.698 3.84h0.022c2 0.222 4.319 0.348 6.668 0.348 14.928 0 28.663-5.111 39.549-13.679l-0.137 0.104c8.449-10.54 13.559-24.073 13.559-38.8 0-2.264-0.121-4.499-0.356-6.7l0.024 0.273v-20.907zM279.467 553.387v-11.52c0.001-0.119 0.001-0.26 0.001-0.401 0-8.645-1.090-17.036-3.139-25.043l0.151 0.697c-1.923-7.113-5.316-13.272-9.855-18.394l0.041 0.047c-6.999-8.192-16.096-14.397-26.464-17.802l-0.416-0.118c-8.626-3.135-18.583-5.001-28.96-5.12h-0.054c-0.891-0.070-1.929-0.111-2.976-0.111-10.363 0-19.807 3.93-26.925 10.381l0.034-0.030c-6.453 6.974-10.412 16.338-10.412 26.627 0 1.291 0.062 2.568 0.184 3.827l-0.013-0.16c-0.041 0.674-0.065 1.461-0.065 2.254 0 12.1 5.475 22.922 14.083 30.122l0.062 0.050c10.372 7.35 23.286 11.749 37.227 11.749 1.915 0 3.81-0.083 5.683-0.246l-0.243 0.017h26.453c10.347-2.166 18.93-4.521 27.308-7.322l-1.708 0.495zM843.093 320c-95.065-41.091-205.717-65.206-321.944-65.706l-0.19-0.001c-0.047 0-0.104 0-0.16 0-155.3 0-300.91 41.486-426.353 113.98l4.113-2.193c-10.24 6.4-18.347-4.267-9.387-12.373 110.637-100.311 258.163-161.713 420.030-161.713 0.983 0 1.966 0.002 2.948 0.007l-0.152-0.001c0.449-0.001 0.982-0.002 1.515-0.002 128.408 0 247.616 39.392 346.197 106.751l-2.112-1.363c14.507 13.227 1.28 30.72-14.507 22.613zM784.213 360.107c-8.107-5.973-6.827-14.080 2.133-12.8 30.293 3.84 97.28 11.52 109.227-3.84s-13.227-78.080-24.747-106.24c-3.413-8.533 4.267-11.947 11.947-5.547 33.061 30.507 53.697 74.054 53.697 122.421 0 7.079-0.442 14.055-1.3 20.902l0.083-0.816c-18.252 7.398-39.422 11.691-61.595 11.691-33.161 0-64.079-9.602-90.126-26.176l0.682 0.405z" />
<glyph unicode="&#xe90a;" glyph-name="bxl-baidu" data-tags="bxl-baidu" d="M265.259 427.264c83.797 18.005 72.235 118.272 69.845 140.245-4.096 33.621-43.861 92.672-97.749 87.936-67.755-6.016-77.696-104.107-77.696-104.107-9.216-45.227 21.973-142.080 105.6-124.075zM420.821 595.541c46.251 0 83.584 53.376 83.584 119.125 0 65.579-37.163 118.827-83.413 118.827-46.336 0-83.883-52.992-83.883-118.827s37.547-119.125 83.84-119.125zM620.245 587.605c62.037-8.32 101.547 57.813 109.568 107.947 8.021 49.749-32.171 107.861-75.776 117.888-43.989 10.112-98.261-60.203-103.723-105.984-5.803-56.235 8.021-112.085 69.717-120.021zM865.408 503.253c0 23.979-19.627 96.128-93.44 96.128-73.771 0-83.84-68.096-83.84-116.309 0-45.952 3.797-109.781 95.872-107.861 91.648 2.219 81.621 104.021 81.621 128.085zM772.267 293.291s-95.872 74.197-151.765 154.155c-75.776 118.101-183.637 69.973-219.477 10.197-36.053-60.501-91.861-98.389-99.797-108.544-8.021-9.899-115.584-68.096-91.605-174.037 24.021-105.941 107.861-104.064 107.861-104.064s61.696-6.059 133.675 9.984c71.936 16 133.547-3.883 133.547-3.883s167.253-56.192 213.547 51.712c45.739 108.245-26.027 164.139-26.027 164.139z" />
<glyph unicode="&#xe90b;" glyph-name="bxl-behance" data-tags="bxl-behance" d="M332.928 715.477c25.131 0 47.744-2.176 68.48-6.613 20.608-4.395 38.187-11.648 53.035-21.675 14.635-10.027 26.069-23.339 34.304-40.064 7.979-16.512 11.947-37.163 11.947-61.568 0-26.453-5.973-48.555-17.963-66.176-12.075-17.664-29.867-32.128-53.589-43.307 32.299-9.344 56.235-25.685 72.107-48.896 15.957-23.424 23.765-51.456 23.765-84.309 0-26.667-5.077-49.579-15.275-68.821-10.121-19.263-24.154-35.207-41.145-47.253l-0.412-0.277c-17.053-12.015-36.968-21.403-58.409-27.021l-1.282-0.285c-20.434-5.582-43.895-8.79-68.106-8.79-0.191 0-0.383 0-0.574 0.001h-254.477v525.056h247.595zM317.952 503.339c20.48 0 37.461 4.864 50.859 14.72 13.312 9.728 19.755 25.771 19.755 47.744 0 12.203-2.176 22.272-6.443 30.165-4.242 7.649-10.282 13.839-17.57 18.14l-0.222 0.121c-7.325 4.419-15.902 7.635-25.059 9.118l-0.413 0.055c-8.488 1.66-18.249 2.61-28.231 2.61-0.53 0-1.059-0.003-1.588-0.008l0.081 0.001h-108.16v-122.667h116.992zM324.395 279.808c11.392 0 22.229 0.981 32.427 3.285 10.283 2.219 19.413 5.803 27.179 11.136 7.765 5.12 14.165 12.075 18.773 20.949 4.651 8.789 6.912 20.267 6.912 34.048 0 27.051-7.637 46.293-22.741 57.941-15.147 11.52-35.456 17.237-60.331 17.237h-125.653v-144.64h123.435zM689.835 281.557c15.659-15.275 38.229-22.955 67.584-22.955 21.035 0 39.211 5.333 54.528 15.915 15.104 10.624 24.32 21.973 27.861 33.707h91.947c-14.763-45.739-37.163-78.421-67.797-98.091-30.251-19.755-67.072-29.568-110.080-29.568-29.952 0-56.917 4.821-81.067 14.379-24.051 9.519-44.522 23.4-61.349 40.825l-0.048 0.050c-16.463 17.717-29.585 38.799-38.195 62.069l-0.418 1.291c-8.658 23.336-13.668 50.294-13.668 78.421 0 0.915 0.005 1.829 0.016 2.742l-0.001-0.139c0 28.416 4.736 54.997 14.037 79.531 9.363 24.746 22.894 45.943 39.919 63.774l-0.069-0.072c17.28 17.92 37.76 32.043 61.611 42.411 22.628 9.777 48.976 15.463 76.651 15.463 0.922 0 1.843-0.006 2.763-0.019l-0.139 0.002c32.171 0 60.288-6.229 84.437-18.773 23.857-12.365 43.704-29.374 58.983-49.976l0.323-0.456c15.488-21.035 26.539-45.141 33.408-72.149 6.869-26.965 9.259-55.125 7.296-84.608h-274.389c0.043-30.037 10.155-58.496 25.856-73.771zM809.813 481.28c-12.416 13.739-33.408 21.163-59.093 21.163-16.683 0-30.464-2.773-41.557-8.491-10.413-5.329-19.203-12.361-26.351-20.824l-0.103-0.125c-6.177-7.549-10.978-16.493-13.859-26.26l-0.135-0.535c-2.294-7.298-3.973-15.819-4.707-24.608l-0.029-0.438h169.899c-2.475 26.624-11.605 46.293-24.064 60.117zM642.645 680.235h212.864v-51.84h-212.864z" />
<glyph unicode="&#xe90c;" glyph-name="bxl-bing" data-tags="bxl-bing" d="M243.627 832l153.301-53.931v-539.52l215.936 124.544-105.813 49.707-66.816 166.272 340.224-119.552v-173.781l-383.317-221.141-153.387 85.333-0.128 682.069z" />
<glyph unicode="&#xe90d;" glyph-name="bxl-bitcoin" data-tags="bxl-bitcoin" d="M509.995 583.723l-23.339-93.44c26.411-6.571 107.904-33.451 121.088 19.456 13.739 55.083-71.381 67.371-97.749 73.984zM474.923 443.093l-25.728-103.040c31.701-7.893 129.579-39.296 144.043 18.816 15.147 60.672-86.571 76.331-118.315 84.224zM615.296 861.909c-228.565 56.96-459.947-82.133-516.907-310.699-57.003-228.48 82.091-459.947 310.485-516.949 228.565-56.96 460.075 82.091 516.992 310.656 57.003 228.523-82.091 459.989-310.571 516.992zM700.245 508.843c-6.187-41.557-29.269-61.653-59.819-68.736 42.027-21.845 63.36-55.381 43.051-113.536-25.259-72.149-85.248-78.251-165.12-63.147l-19.371-77.653-46.763 11.648 19.072 76.544c-25.757 6.095-38.267 9.442-50.725 12.913l13.391-3.185-19.157-76.971-46.72 11.733 19.371 77.781c-10.965 2.816-22.059 5.803-33.365 8.619l-60.971 15.147 23.296 53.589s34.475-9.173 34.005-8.491c13.269-3.285 19.115 5.333 21.419 11.136l30.677 122.667 4.907-1.237c-1.321 0.556-2.942 1.096-4.609 1.523l-0.255 0.055 21.845 87.595c0.555 9.984-2.816 22.528-21.803 27.264 0.768 0.469-34.005 8.448-34.005 8.448l12.416 50.005 64.597-16.128-0.043-0.213c9.685-2.432 19.669-4.736 29.867-7.040l19.157 76.885 46.805-11.648-18.773-75.349c12.544-2.859 25.216-5.76 37.504-8.832l18.688 74.88 46.805-11.648-19.157-76.885c59.051-20.437 102.229-50.987 93.781-107.733z" />
<glyph unicode="&#xe90e;" glyph-name="bxl-blender" data-tags="bxl-blender" d="M530.219 404.864c1.579 28.459 15.488 53.504 36.523 71.296 20.951 17.522 48.182 28.162 77.897 28.162 0.274 0 0.548-0.001 0.822-0.003h-0.042c30.293 0 58.027-10.667 78.72-28.16 20.992-17.792 34.944-42.88 36.523-71.296 1.621-29.269-10.112-56.448-30.763-76.587-21.623-20.657-50.987-33.37-83.321-33.37-0.393 0-0.785 0.002-1.177 0.006h0.060c-0.352-0.004-0.768-0.006-1.184-0.006-32.339 0-61.71 12.714-83.385 33.415l0.047-0.044c-20.608 20.139-32.384 47.317-30.72 76.587zM346.624 347.264c0.213-11.093 3.797-32.725 9.088-49.664 12.27-38.087 31.679-70.865 56.836-98.284l-0.175 0.193c27.186-29.841 60.181-53.871 97.26-70.388l1.854-0.738c37.833-17.121 82.030-27.097 128.558-27.097 0.554 0 1.108 0.001 1.661 0.004h-0.086c0.116 0 0.254 0 0.392 0 46.987 0 91.607 10.134 131.795 28.335l-2.011-0.815c38.876 17.458 71.827 41.582 98.817 71.23l0.213 0.237c24.923 27.3 44.299 60.129 56.052 96.391l0.524 1.87c5.266 16.026 9.050 34.676 10.61 53.955l0.057 0.872c0.449 5.653 0.704 12.24 0.704 18.886 0 49.83-14.376 96.302-39.207 135.496l0.614-1.038c-17.947 28.413-39.855 52.466-65.288 72.19l-0.632 0.471 0.043 0.043-267.307 205.355c-17.536 13.397-46.976 13.355-66.176-0.085-19.499-13.611-21.675-36.096-4.437-50.347l-0.043-0.043 111.189-90.496-339.413-0.384c-27.989 0-54.912-18.432-60.245-41.643-5.461-23.68 13.568-43.307 42.709-43.392l-0.043-0.128 171.819 0.341-307.84-236.245c-28.885-22.144-38.229-58.965-20.053-82.304 18.517-23.723 57.771-23.723 87.040-0.085l167.339 136.917c0.043 0-2.389-18.475-2.219-29.611zM776.619 285.397c-34.475-35.157-82.688-55.083-134.955-55.168-52.309-0.085-100.523 19.669-135.040 54.741-15.888 15.904-28.436 35.147-36.501 56.586l-0.363 1.1c-5.747 15.25-9.073 32.878-9.073 51.283 0 4.642 0.212 9.235 0.626 13.769l-0.043-0.583c1.877 21.547 8.235 42.112 18.517 60.672 10.069 18.304 23.979 34.773 41.045 48.811 32.445 26.26 74.217 42.158 119.702 42.158 0.397 0 0.794-0.001 1.191-0.004h-0.061c0.457 0.004 0.997 0.006 1.537 0.006 45.3 0 86.917-15.765 119.665-42.108l-0.37 0.288c17.024-13.909 30.933-30.336 41.003-48.597 10.24-18.603 16.64-39.083 18.517-60.629 0.369-3.95 0.58-8.542 0.58-13.184 0-18.402-3.31-36.031-9.366-52.324l0.338 1.038c-8.516-22.58-21.083-41.867-36.959-57.866l0.010 0.010z" />
<glyph unicode="&#xe90f;" glyph-name="bxl-blogger" data-tags="bxl-blogger" d="M894.037 504.875c-3.072 13.739-11.605 26.496-21.419 31.787-2.987 1.664-22.272 3.755-42.837 4.651-34.517 1.536-38.315 2.219-49.152 8.576-17.28 10.112-22.016 21.035-22.101 50.645-0.085 56.619-23.637 109.184-70.229 156.587-33.109 33.835-70.187 56.704-112.384 69.504-10.069 3.072-32.768 4.139-108.587 5.035-118.912 1.408-145.28-1.024-185.856-17.152-74.581-29.739-128.341-92.416-147.84-172.8-3.712-15.061-4.395-39.253-5.291-178.219-1.067-174.080 0.171-199.68 11.008-234.155 9.045-28.501 18.133-45.952 36.736-70.699 35.627-47.275 88.875-81.365 142.251-91.008 25.387-4.565 338.389-5.76 370.475-1.365 55.723 7.595 99.456 29.952 140.501 71.851 29.611 30.293 48.171 63.104 60.331 106.624 4.992 18.091 5.419 26.88 6.357 132.992 0.725 80.128 0.085 117.675-1.963 127.147zM341.632 614.059c13.355 13.483 17.024 14.037 100.864 14.037 75.264 0 77.739-0.171 88.789-5.717 16-8.064 22.955-19.456 22.955-37.547 0-16.384-6.528-27.861-21.035-37.077-7.851-4.907-12.501-5.248-86.229-5.675-45.525-0.299-81.749 0.555-87.168 2.048-28.544 7.851-39.168 48.768-18.176 69.931zM670.421 271.147l-25.472-4.181-132.864-1.493c-116.736-1.408-149.803 0.768-155.819 3.413-12.288 5.291-23.637 20.139-25.685 33.28-1.792 12.459 4.437 29.696 14.080 38.4 12.16 10.965 17.451 11.349 166.869 11.52 153.685 0.085 152.875 0.128 167.467-13.44 20.565-19.2 16.256-53.376-8.576-67.499z" />
<glyph unicode="&#xe910;" glyph-name="bxl-bootstrap" data-tags="bxl-bootstrap" d="M768.085 832.128h-512.128c-70.667-0.218-127.892-57.458-128.085-128.11v-512.103c0.266-70.624 57.458-127.801 128.062-128.043h512.151c70.609 0.266 127.777 57.434 128.043 128.017v512.11c-0.217 70.646-57.404 127.862-128.017 128.128h-0.025zM698.112 292.523c-6.485-15.36-16.597-29.013-29.568-39.552-14.593-11.423-31.741-20.394-50.371-25.921l-1.085-0.276c-20.907-6.443-45.824-9.771-74.667-9.771h-205.867v448.213h217.728c40.235 0 72.533-9.088 96.725-27.563 24.277-18.603 36.437-46.165 36.437-83.541 0-22.528-5.547-41.941-16.597-57.899-11.051-15.915-26.88-28.331-47.403-37.035v-1.451c27.392-5.76 48.512-18.688 62.464-38.912 13.952-20.181 21.035-45.611 21.035-76.331 0-17.28-3.328-33.621-9.6-48.939l0.853-0.896v-0.128zM609.195 402.987c-13.184 12.032-31.531 17.877-55.339 17.877h-138.411v-139.776h138.795c23.637 0 42.283 6.144 55.381 18.56 13.141 12.331 19.797 29.909 19.797 52.437-0.213 22.101-6.656 39.211-19.797 50.901h-0.427zM589.952 493.397c12.757 10.709 18.944 26.155 18.944 46.251 0 22.443-5.589 38.485-16.939 47.616-11.264 9.131-27.563 13.909-48.896 13.909h-128.043v-123.648h128.043c18.603-0.043 34.56 5.419 46.891 15.872z" />
<glyph unicode="&#xe911;" glyph-name="bxl-chrome" data-tags="bxl-chrome" d="M458.325 872.96c-59.904-7.808-130.56-34.475-182.656-69.376-43.093-28.331-102.272-86.187-98.517-96.043 8.235-21.376 139.947-241.408 142.080-237.312 1.621 2.859 4.053 11.904 5.248 20.907 10.667 59.093 60.8 115.371 123.605 138.795 24.235 9.429 29.141 9.429 234.453 11.52l209.792 2.005-16.853 27.563c-59.093 96.427-150.272 162.944-264.405 192.512-31.189 8.235-119.893 13.568-152.747 9.387zM136.533 652.075c-19.328-34.091-41.941-103.040-47.232-143.275-25.088-182.315 66.901-358.4 229.504-440.107 38.144-19.285 92.757-37.76 116.565-39.808l15.189-1.237 71.424 121.088c39.040 66.517 70.613 121.557 69.803 122.368-0.853 0.811-9.856-1.664-20.523-5.333-66.944-22.613-144.512-3.669-194.987 47.616-18.091 18.091-42.752 57.899-121.173 193.792-54.144 93.995-99.712 171.179-101.376 171.179-1.195 0-9.003-11.904-17.195-26.283zM646.4 584.363c52.139-52.992 70.613-128.128 47.616-195.84-3.669-11.093-51.712-96.896-106.709-191.36-55.040-93.995-100.224-171.989-100.224-173.227 0-4.907 56.661-2.432 92.8 3.712 184.32 31.573 323.115 170.752 352.64 353.109 11.093 66.475 6.997 124.8-13.099 192.128l-10.667 35.712h-286.165l23.765-24.235zM452.608 594.645c-43.093-18.091-72.661-48.512-88.661-91.605-7.381-19.328-8.619-30.421-7.381-60.757 1.28-32 2.901-41.088 14.805-64.469 15.616-32 41.045-56.704 74.709-72.661 19.712-9.429 27.904-10.667 65.707-10.667 38.187 0 45.952 1.237 66.517 11.093 30.379 13.909 62.379 45.952 76.373 76.373 9.813 20.48 11.051 28.288 11.051 66.475 0 37.803-1.237 45.995-10.667 65.707-16 33.621-40.619 59.136-72.661 74.667-24.235 11.947-31.659 13.568-66.56 14.848-33.621 0.811-42.24-0.427-63.147-9.045z" />
<glyph unicode="&#xe912;" glyph-name="bxl-codepen" data-tags="bxl-codepen" d="M931.755 599.68c0 0.043-0.043 0.043 0 0l-0.128 0.171-0.043 0.043v0.043c-2.679 3.908-6.019 7.153-9.89 9.646l-0.137 0.082-390.997 259.413c-5.42 3.51-12.045 5.597-19.157 5.597s-13.738-2.087-19.297-5.682l0.139 0.084-391.083-259.541c-9.569-6.017-15.836-16.519-15.836-28.484 0-0.231 0.002-0.461 0.007-0.691l-0.001 0.034v-262.827c-0.003-0.158-0.004-0.345-0.004-0.532 0-6.921 2.089-13.355 5.67-18.704l-0.077 0.122v-0.043l0.085-0.085 0.427-0.64v-0.085h0.043l0.085-0.085c2.688-3.755 5.973-6.827 9.643-9.173l391.040-259.499c5.325-3.712 11.931-5.931 19.056-5.931 0.021 0 0.041 0 0.062 0h-0.003c0.055 0 0.119-0.001 0.184-0.001 7.112 0 13.705 2.219 19.125 6.003l-0.109-0.072 391.040 259.499c9.574 6.095 15.834 16.653 15.834 28.672 0 0.195-0.002 0.389-0.005 0.584v-0.029 262.827c0.003 0.156 0.004 0.339 0.004 0.523 0 6.993-2.121 13.49-5.755 18.883l0.077-0.121zM545.323 777.685l296.661-196.821-135.808-90.112-160.896 108.203v178.731zM477.397 777.685v-178.731l-160.896-108.203-135.723 90.069 296.619 196.864zM153.344 517.504l102.187-67.84-102.187-68.736v136.576zM477.397 120.235l-296.96 196.992 136.32 91.733 160.64-106.581v-182.144zM511.317 361.429l-133.461 88.661 133.461 89.813 133.589-89.813-133.589-88.661zM545.323 120.235v182.187l160.683 106.581 136.235-91.733-296.917-197.035zM869.461 380.928l-102.229 68.736 102.229 67.84v-136.576z" />
<glyph unicode="&#xe913;" glyph-name="bxl-c-plus-plus" data-tags="bxl-c-plus-plus" d="M881.493 661.333c-5.636 10.131-13.591 18.359-23.179 24.158l-0.288 0.162-313.173 180.907c-9.536 5.057-20.848 8.026-32.853 8.026s-23.317-2.969-33.241-8.213l0.388 0.187-313.173-180.907c-18.961-12.315-31.632-32.93-32.846-56.573l-0.007-0.174v-361.813c0.335-12.011 3.781-23.151 9.555-32.728l-0.168 0.301c5.636-10.131 13.591-18.359 23.179-24.158l0.288-0.162 313.173-180.907c9.536-5.057 20.848-8.026 32.853-8.026s23.317 2.969 33.241 8.213l-0.388-0.187 313.173 180.907c9.876 5.961 17.831 14.189 23.299 23.993l0.168 0.327c5.606 9.276 9.052 20.415 9.385 32.333l0.002 0.093v361.813c-0.335 12.011-3.781 23.151-9.555 32.728l0.168-0.301zM512 195.413c-139.013 0.642-251.457 113.481-251.457 252.584 0 139.5 113.087 252.587 252.587 252.587 92.304 0 173.045-49.512 217.111-123.426l0.639-1.158-48.213-30.293-15.36-8.533-42.667-26.027c-22.076 40.343-64.227 67.245-112.662 67.245-70.692 0-128-57.308-128-128 0-0.841 0.008-1.68 0.024-2.517l-0.002 0.126c-0.001-0.199-0.002-0.434-0.002-0.669 0-23.044 6.343-44.606 17.379-63.036l-0.31 0.559c22.837-37.188 63.286-61.616 109.44-61.616s86.603 24.428 109.122 61.060l0.318 0.555 110.933-64.853c-44.909-75.091-125.795-124.587-218.24-124.587-0.225 0-0.45 0-0.674 0.001h0.035zM764.587 433.92h-28.16v-28.587h-27.733v28.16h-26.027v28.16h28.16v29.013h27.733v-28.16h28.16zM869.973 433.92h-28.16v-28.587h-28.16v28.16h-27.733v28.16h27.733v29.013h28.16v-28.16h28.16z" />
<glyph unicode="&#xe914;" glyph-name="bxl-creative-commons" data-tags="bxl-creative-commons" d="M868.437 683.563c-70.541 104.981-184.131 176.361-314.904 188.838l-1.725 0.133c-132.608 12.544-257.323-32.896-346.581-126.421-54.485-57.045-90.069-120.576-110.933-198.272-9.259-34.347-10.539-47.104-10.411-102.229 0.085-55.168 1.451-68.224 10.88-103.765 41.671-154.693 162.286-273.621 314.894-312.186l3.016-0.646c13.44-3.328 29.952-6.827 36.651-7.765 29.696-4.139 101.589-2.389 133.589 3.2 131.755 22.955 248.832 107.989 308.907 224.341 70.144 135.723 60.843 308.139-23.381 434.773zM850.944 355.541c-34.475-127.573-139.221-224.939-271.403-252.245-206.123-42.539-406.955 113.408-419.797 326.016-8.277 137.259 74.88 275.029 202.453 335.488 48.341 22.869 87.253 31.275 146.133 31.488 56.619 0.171 88.064-5.632 137.515-25.429 99.157-39.723 176.896-129.707 205.483-237.781 11.989-45.227 11.776-132.395-0.384-177.536zM343.125 321.92c-39.040 13.824-68.949 54.4-74.24 100.693-7.808 68.565 18.005 121.856 70.571 145.707 28.544 12.928 80.299 12.629 111.061-0.683 18.688-8.107 53.803-39.808 53.803-48.597 0-1.408-12.117-8.576-26.923-15.872l-26.965-13.312-14.379 14.379c-7.979 8.021-20.267 15.488-27.691 16.896-18.475 3.499-40.619-4.736-50.645-18.773-16.597-23.296-17.707-84.139-2.048-108.075 8.149-12.416 21.845-21.077 34.688-22.101 27.093-2.133 33.963 0.256 50.005 17.109l16.171 16.981 20.821-11.477c11.477-6.315 22.485-13.013 24.533-14.805 6.997-6.315-25.259-39.253-51.157-52.224-22.059-11.051-28.971-12.501-57.941-12.203-18.133 0.256-40.491 3.157-49.664 6.357zM591.275 321.92c-38.443 13.653-67.883 52.949-74.197 99.2-9.173 66.944 17.877 123.221 70.571 147.2 30.592 13.824 82.517 12.8 113.536-2.389 19.2-9.429 51.243-38.869 51.243-47.104 0-1.451-12.587-8.661-27.904-16.085l-27.904-13.525-14.549 15.787c-12.971 14.165-16.427 15.744-34.219 15.744-24.576 0-40.32-9.6-48.853-29.781-7.68-18.048-8.576-62.336-1.835-82.517 13.824-41.003 64.213-50.688 92.8-17.877l12.971 14.763 24.747-12.544c13.653-6.869 24.832-13.611 24.832-15.019 0-9.344-32-39.168-53.589-49.92-22.059-11.051-28.971-12.501-57.941-12.245-18.133 0.213-40.491 3.115-49.707 6.315z" />
<glyph unicode="&#xe915;" glyph-name="bxl-css3" data-tags="bxl-css3" d="M178.859 825.899h666.24l-60.587-684.117-273.237-77.312-271.744 77.355-60.672 684.075zM721.067 685.909l-418.133 0.085 6.741-83.157 321.237-0.085-8.064-86.187h-210.688l7.637-81.621h196.139l-11.605-111.787-92.331-25.515-93.739 25.728-6.016 66.944h-82.773l9.216-122.325 173.312-53.973 170.453 48.512 38.613 423.381z" />
<glyph unicode="&#xe916;" glyph-name="bxl-dailymotion" data-tags="bxl-dailymotion" d="M578.176 469.973c-0.013 0-0.028 0-0.043 0-54.834 0-99.285-44.452-99.285-99.285 0-0.075 0-0.15 0-0.225v0.012c0-56.064 43.221-98.688 104.149-98.688l-0.512-0.085c50.859 0 93.568 41.941 93.568 97.28 0.043 57.557-42.709 100.992-97.877 100.992zM128 832v-768h768v768h-768zM790.187 166.187h-114.432v45.141c-35.2-34.56-71.125-47.061-118.869-47.061-48.725 0-90.624 15.829-125.739 47.531-46.336 40.789-70.315 95.019-70.315 157.909 0 57.643 22.357 109.269 64.299 149.589 37.461 36.651 83.029 55.381 133.931 55.381 48.64 0 86.101-16.427 112.939-50.859v175.147l118.187 24.448v-557.227z" />
<glyph unicode="&#xe917;" glyph-name="bxl-deviantart" data-tags="bxl-deviantart" d="M749.653 832h-139.563l-13.909-14.080-65.877-125.525-20.736-13.952h-235.136v-191.787h129.28l11.52-13.952-140.8-269.013v-139.648h139.605l13.952 14.080 65.835 125.568 20.736 13.909h235.136v191.787h-129.28l-11.477 14.037 140.757 268.928-0.043 139.648z" />
<glyph unicode="&#xe918;" glyph-name="bxl-dev-to" data-tags="bxl-dev-to" d="M333.909 529.792c-5.42 4.43-12.347 7.203-19.911 7.465l-0.057 0.002h-29.909v-179.115h29.909c7.636 0.26 14.577 3.034 20.071 7.515l-0.061-0.048c6.613 4.992 9.941 12.459 9.941 22.4v119.381c0.043 9.941-3.371 17.408-9.984 22.4zM820.736 832h-617.472c-41.515 0-75.179-33.579-75.264-75.093v-617.813c0.085-41.515 33.749-75.093 75.264-75.093h617.515c41.515 0 75.179 33.579 75.264 75.093v617.813c-0.121 41.499-33.791 75.093-75.306 75.093 0 0 0 0 0 0v0zM392.32 387.669c0-32.213-19.883-81.109-82.859-80.981h-79.531v283.605h81.195c60.757 0 81.152-48.811 81.195-81.024v-121.6zM564.907 539.648h-91.307v-65.877h55.851v-50.688h-55.851v-65.835h91.392v-50.688h-106.581c-0.257-0.007-0.561-0.011-0.865-0.011-18.846 0-34.182 15.030-34.676 33.757l-0.001 0.046v214.443c-0.006 0.245-0.010 0.533-0.010 0.822 0 18.846 15.029 34.182 33.756 34.676l0.046 0.001h108.331l-0.085-50.645zM742.613 342.016c-22.656-52.693-63.189-42.24-81.323 0l-66.048 248.235h55.851l50.901-194.944 50.688 194.944h55.893l-65.963-248.235z" />
<glyph unicode="&#xe919;" glyph-name="bxl-digg" data-tags="bxl-digg" d="M716.928 584.533v-290.176h136.533v-34.091h-136.533v-68.352h221.867v392.619h-221.867zM460.928 584.533v-290.176h136.491v-34.091h-136.491v-68.352h221.824v392.619h-221.824zM221.867 704.043v-119.509h-136.533v-290.176h221.909v409.685h-85.376zM426.709 584.533h-85.333v-290.176h85.333v290.176zM853.461 362.667h-51.2v153.643h51.2v-153.643zM221.867 362.667h-51.2v153.643h51.2v-153.643zM597.419 362.667h-51.2v153.643h51.2v-153.643zM426.709 704.043h-85.333v-85.333h85.333v85.333z" />
<glyph unicode="&#xe91a;" glyph-name="bxl-digitalocean" data-tags="bxl-digitalocean" d="M512.213 21.675v165.419c175.104 0 310.955 173.568 243.797 357.888-25.759 68.459-78.934 121.481-145.787 146.469l-1.711 0.561c-184.277 66.688-357.931-68.693-357.931-243.797h-164.907c0 279.083 269.867 496.725 562.517 405.291 127.616-40.107 229.675-141.696 269.355-269.355 91.349-292.608-126.293-562.475-405.333-562.475zM512.725 186.069h-164.907v164.949h164.907zM347.819 59.819h-126.251v126.251h126.251zM221.568 186.069h-105.899v105.941h105.899v-105.941z" />
<glyph unicode="&#xe91b;" glyph-name="bxl-discord" data-tags="bxl-discord" d="M409.301 491.904c-23.125 0-41.344-20.267-41.344-45.013 0-24.661 18.645-45.013 41.344-45.013 23.083 0 41.301 20.352 41.301 45.013 0.469 24.789-18.219 45.013-41.301 45.013zM557.269 491.904c-23.125 0-41.344-20.267-41.344-45.013 0-24.661 18.645-45.013 41.344-45.013 23.083 0 41.301 20.352 41.301 45.013-0.043 24.789-18.219 45.013-41.301 45.013zM754.261 832h-543.189c-45.906-0.121-83.072-37.363-83.072-83.285 0-0.075 0-0.15 0-0.225v0.012-548.011c0-46.208 37.291-83.499 83.072-83.499h459.648l-21.547 75.051 51.925-48.256 49.024-45.397 87.211-77.056v727.168c0 0.063 0 0.139 0 0.214 0 45.922-37.167 83.164-83.061 83.285h-0.011zM597.76 302.635s-14.592 17.408-26.709 32.896c53.077 15.019 73.344 48.213 73.344 48.213-16.64-10.923-32.427-18.688-46.635-23.979-32.488-13.97-70.304-22.094-110.018-22.094-19.007 0-37.58 1.861-55.545 5.41l1.809-0.298c-22.801 4.535-42.75 10.577-61.835 18.307l2.272-0.813c-11.654 4.453-21.393 9.058-30.73 14.295l1.162-0.599c-1.237 0.896-2.432 1.237-3.627 2.048-0.657 0.317-1.211 0.748-1.658 1.273l-0.006 0.007c-7.296 4.011-11.349 6.827-11.349 6.827s19.456-32.427 70.955-47.829c-12.16-15.36-27.179-33.664-27.179-33.664-89.557 2.859-123.563 61.611-123.563 61.611 0 130.517 58.368 236.288 58.368 236.288 58.368 43.819 113.877 42.581 113.877 42.581l4.053-4.864c-72.96-21.12-106.624-53.12-106.624-53.12s8.96 4.864 23.936 11.733c43.349 19.029 77.781 24.32 91.989 25.557 2.432 0.384 4.48 0.811 6.912 0.811 13.276 1.887 28.611 2.965 44.196 2.965 58.581 0 113.607-15.222 161.338-41.926l-1.673 0.86s-32.043 30.379-100.949 51.456l5.675 6.485s55.552 1.237 113.877-42.581c0 0 58.368-105.771 58.368-236.288 0 0.043-34.432-58.709-124.032-61.568z" />
<glyph unicode="&#xe91c;" glyph-name="bxl-discord-alt" data-tags="bxl-discord-alt" d="M632.32 778.24c-7.317-12.734-14.897-28.165-21.554-44.077l-1.060-2.856c-29.37 4.886-63.212 7.678-97.707 7.678s-68.337-2.792-101.314-8.163l3.607 0.485c-7.716 18.768-15.296 34.199-23.733 49.080l1.12-2.146c-66.126-11.508-125.265-30.792-180.31-57.24l4.097 1.774c-82.384-117.572-131.649-263.601-131.649-421.135 0-25.84 1.325-51.37 3.912-76.526l-0.263 3.155c61.745-46.844 133.624-84.505 211.303-109.134l5.017-1.373c16.474 21.538 32.174 45.824 45.92 71.318l1.44 2.922c-28.067 10.454-52.117 22.377-74.708 36.426l1.748-1.013c6.707 4.492 12.557 9.123 18.017 14.169l-0.097-0.089c63.107-31.097 137.376-49.286 215.893-49.286s152.787 18.19 218.824 50.585l-2.93-1.299q8.96-7.68 17.92-14.080c-20.71-12.8-44.731-24.84-69.826-34.749l-3.134-1.091c14.603-29.14 29.919-54.013 47.112-77.42l-1.032 1.473c82.554 25.902 154.304 63.573 217.614 111.763l-1.721-1.256c2.42 22.381 3.8 48.342 3.8 74.625 0 157.142-49.333 302.762-133.357 422.216l1.557-2.335c-50.374 25.16-108.835 45.121-170.201 56.911l-4.306 0.689zM370.347 328.107c-43.092 3.187-76.846 38.932-76.846 82.561 0 0.975 0.017 1.946 0.050 2.913l-0.004-0.14c-0.039 0.945-0.061 2.055-0.061 3.17 0 43.549 33.805 79.202 76.605 82.15l0.256 0.014c43.056-2.962 76.861-38.615 76.861-82.164 0-1.115-0.022-2.224-0.066-3.328l0.005 0.159c0.039-0.945 0.061-2.055 0.061-3.17 0-43.549-33.805-79.202-76.605-82.15l-0.256-0.014zM653.653 328.107c-43.092 3.187-76.846 38.932-76.846 82.561 0 0.975 0.017 1.946 0.050 2.913l-0.004-0.14c-0.039 0.945-0.061 2.055-0.061 3.17 0 43.549 33.805 79.202 76.605 82.15l0.256 0.014c43.021-2.734 76.878-38.295 76.878-81.765 0-1.255-0.028-2.504-0.084-3.745l0.006 0.176c0.050-1.065 0.078-2.314 0.078-3.569 0-43.469-33.857-79.031-76.639-81.753l-0.238-0.012z" />
<glyph unicode="&#xe91d;" glyph-name="bxl-discourse" data-tags="bxl-discourse" d="M515.285 832c-210.261 0-387.285-168.96-387.285-377.301v-390.699l387.2 0.427c210.261 0 380.8 175.36 380.8 383.701 0 208.384-170.667 383.872-380.715 383.872zM682.539 283.349c-42.493-40.347-100.072-65.163-163.448-65.163-35.094 0-68.412 7.61-98.391 21.269l1.487-0.607-153.387-34.347 42.709 136.192c-17.957 32.164-28.531 70.566-28.531 111.437 0 44.183 12.357 85.48 33.802 120.624l-0.579-1.020c42.218 68.951 117.132 114.261 202.629 114.261 0.058 0 0.117 0 0.175 0h-0.009v-0.043h0.256c0.126 0 0.275 0 0.425 0 98.149 0 182.308-59.896 217.92-145.129l0.578-1.559c10.757-25.805 17.005-55.784 17.005-87.222 0-66.391-27.864-126.274-72.537-168.593l-0.106-0.1z" />
<glyph unicode="&#xe91e;" glyph-name="bxl-django" data-tags="bxl-django" d="M321.408 437.376c-0.469-84.693 61.653-135.168 160.768-112.213v224.469c-100.352 30.549-160.341-31.275-160.768-112.256zM485.205 874.197h136.491v-646.101c-130.816-21.376-256.171-34.944-345.771 15.147-115.413 64.555-124.715 269.611-33.365 360.96 46.293 46.293 139.563 78.933 239.616 57.643v203.221c-0.256 4.309-0.512 8.619 3.029 9.131zM843.136 731.605h-136.491v142.592h136.491v-142.592zM843.136 659.456c-0.128-100.523-0.128-172.715-0.128-294.869-5.803-120.021-4.437-215.552-48.427-272.981-8.661-11.349-27.051-27.819-42.453-39.424-12.928-9.728-37.589-29.483-51.541-30.336-14.123-0.896-50.347 19.584-66.731 27.307-21.547 10.112-41.429 23.595-63.701 30.293 51.968 32.171 101.205 56.32 121.344 121.344 17.493 56.576 15.147 138.539 15.147 218.411 0 78.891 0.384 170.581 0.384 240.213l136.107 0.043z" />
<glyph unicode="&#xe91f;" glyph-name="bxl-docker" data-tags="bxl-docker" d="M860.587 541.013c-0.333 0.002-0.726 0.003-1.12 0.003-12.268 0-24.281-1.088-35.95-3.172l1.23 0.182c-6.575 38.743-29.108 71.224-60.463 90.983l-0.551 0.324-11.947 6.827-8.107-11.52c-9.681-14.548-17.185-31.511-21.543-49.698l-0.217-1.075c-2.56-9.298-4.031-19.974-4.031-30.993 0-23.594 6.743-45.612 18.407-64.234l-0.296 0.507c-18.131-8.295-39.218-13.667-61.408-14.913l-0.459-0.021h-561.92c-0.001 0-0.002 0-0.003 0-14.695 0-26.636-11.793-26.876-26.431v-0.023c-0.015-1.296-0.023-2.828-0.023-4.362 0-50.34 9.081-98.559 25.695-143.108l-0.925 2.83c15.777-46.448 45.691-84.641 84.546-110.442l0.787-0.492c49.778-25.805 108.672-40.938 171.1-40.938 6.15 0 12.266 0.147 18.344 0.437l-0.858-0.033c2.917-0.054 6.358-0.085 9.806-0.085 33.007 0 65.354 2.824 96.813 8.245l-3.365-0.48c51.172 9.347 96.846 26.427 138.202 50.176l-2.096-1.109c35.752 21.899 66.291 48.093 92.146 78.404l0.441 0.53c37.95 44.424 68.744 96.364 89.737 153.060l1.143 3.527h8.107c1.448-0.057 3.148-0.090 4.856-0.090 34.998 0 66.8 13.681 90.35 35.986l-0.060-0.056c10.83 10.115 19.392 22.513 24.935 36.44l0.239 0.68 3.413 9.387-8.533 6.827c-17.521 11.394-38.956 18.17-61.974 18.17-2.665 0-5.308-0.091-7.927-0.269l0.354 0.019zM239.36 561.067h-75.093c-0.004 0-0.009 0-0.013 0-3.62 0-6.582-2.818-6.812-6.38l-0.001-0.020v-67.413c0.231-3.582 3.193-6.4 6.813-6.4 0.005 0 0.009 0 0.014 0h75.092c0.004 0 0.009 0 0.013 0 3.62 0 6.582 2.818 6.812 6.38l0.001 0.020v67.413c-0.231 3.582-3.193 6.4-6.813 6.4-0.005 0-0.009 0-0.014 0h0.001zM343.467 561.067h-75.52c-0.004 0-0.009 0-0.013 0-3.62 0-6.582-2.818-6.812-6.38l-0.001-0.020v-67.413c0.231-3.582 3.193-6.4 6.813-6.4 0.005 0 0.009 0 0.014 0h75.519c3.535 0 6.4 2.865 6.4 6.4v67.413c0 3.535-2.865 6.4-6.4 6.4v0zM448.853 561.067h-75.52c-3.535 0-6.4-2.865-6.4-6.4v0-67.413c0-3.535 2.865-6.4 6.4-6.4v0h75.52c3.535 0 6.4 2.865 6.4 6.4v67.413c0 3.535-2.865 6.4-6.4 6.4v0zM477.44 561.067c-0.513 0.148-1.102 0.233-1.711 0.233-3.535 0-6.4-2.865-6.4-6.4 0-0.082 0.002-0.163 0.005-0.245v0.012-67.413c0-3.535 2.865-6.4 6.4-6.4v0h78.933c3.535 0 6.4 2.865 6.4 6.4v67.413c0 3.535-2.865 6.4-6.4 6.4v0zM267.947 657.493h73.387c3.77 0 6.827-3.056 6.827-6.827v0-66.56c0.077-0.385 0.121-0.828 0.121-1.281 0-3.77-3.056-6.827-6.827-6.827-0.043 0-0.085 0-0.128 0.001h-73.381c-3.535 0-6.4 2.865-6.4 6.4v68.693c0 3.535 2.865 6.4 6.4 6.4v0zM373.333 657.493h75.52c3.535 0 6.4-2.865 6.4-6.4v0-66.987c0-3.77-3.056-6.827-6.827-6.827v0h-75.093c-3.535 0-6.4 2.865-6.4 6.4v0 67.413c0 3.535 2.865 6.4 6.4 6.4v0zM477.44 657.493h77.227c3.535 0 6.4-2.865 6.4-6.4v0-66.987c0.148-0.513 0.233-1.102 0.233-1.711 0-3.535-2.865-6.4-6.4-6.4-0.082 0-0.163 0.002-0.245 0.005h-77.215c-0.43-0.097-0.925-0.152-1.432-0.152-3.77 0-6.827 3.056-6.827 6.827 0 0.507 0.055 1.001 0.16 1.477l-0.008-0.045v66.987c-0.003 0.069-0.004 0.151-0.004 0.233 0 3.535 2.865 6.4 6.4 6.4 0.609 0 1.198-0.085 1.756-0.244l-0.045 0.011zM477.44 754.347h75.52c3.535 0 6.4-2.865 6.4-6.4v-67.413c0-3.535-2.865-6.4-6.4-6.4h-75.52c-3.535 0-6.4 2.865-6.4 6.4v67.413c0 3.535 2.865 6.4 6.4 6.4zM582.4 561.067c-3.535 0-6.4-2.865-6.4-6.4v0-67.413c0-3.535 2.865-6.4 6.4-6.4v0h75.52c3.535 0 6.4 2.865 6.4 6.4v0 67.413c0 3.535-2.865 6.4-6.4 6.4v0z" />
<glyph unicode="&#xe920;" glyph-name="bxl-dribbble" data-tags="bxl-dribbble" d="M881.493 662.187c-37.897 64.882-90.455 117.426-153.346 154.224l-2.003 1.083c-65.408 38.101-136.789 57.173-214.144 57.173s-148.736-19.072-214.187-57.173c-65.408-38.101-117.205-89.899-155.307-155.307s-57.173-136.832-57.173-214.187 19.029-148.779 57.173-214.187c37.884-64.892 90.445-117.439 153.346-154.224l2.003-1.082c65.408-38.101 136.789-57.173 214.144-57.173s148.736 19.072 214.187 57.173c64.895 37.881 117.452 90.425 154.266 153.305l1.083 2.002c38.101 65.408 57.131 136.832 57.131 214.187s-19.029 148.779-57.173 214.187zM512 803.84c85.333 0 160.939-27.307 226.987-81.877-39.253-50.091-97.536-91.307-174.933-123.733-42.752 77.355-89.088 141.952-139.136 193.707 26.091 7.499 56.067 11.842 87.048 11.904h0.035zM235.093 669.867c31.092 39.243 69.66 71.116 113.727 93.811l1.942 0.909c51.712-51.243 99.2-115.2 142.507-192-85.333-25.6-175.531-38.4-270.549-38.4-24.448 0-42.923 0.555-55.467 1.707 14.033 51.473 37.395 96.277 68.383 134.669l-0.543-0.695zM156.16 448c0 2.304 0.128 5.12 0.427 8.533s0.427 6.229 0.427 8.533c10.837-0.597 27.349-0.853 49.536-0.853 113.749 0 219.563 15.659 317.397 46.933 7.979-15.915 16.256-33.835 24.747-53.76-56.32-12.501-114.091-42.923-173.269-91.307s-102.357-99.285-129.664-152.747c-59.733 67.712-89.6 145.92-89.6 234.667zM512 92.16c-80.811 0-153.344 25.045-217.643 75.051 25.643 50.645 65.024 99.072 118.229 145.109 53.163 46.080 105.941 74.795 158.293 86.187 30.722-81.898 54.114-177.417 65.977-276.479l0.583-5.975c-37.17-14.955-80.256-23.71-125.366-23.893h-0.074zM814.080 261.12c-28.441-45.337-65.306-82.76-108.702-110.989l-1.378-0.841c-10.24 88.747-29.867 175.232-58.837 259.456 39.765 2.816 75.307 4.267 106.667 4.267 34.091 0 71.936-1.451 113.451-4.267-6.030-55.391-24.296-105.519-52.032-149.022l0.832 1.396zM761.173 474.453c-49.493 0-95.275-2.005-137.387-5.973-11.746 31.011-21.518 53.806-31.989 76.208l2.975-7.088c88.149 38.656 150.699 85.589 187.691 140.8 51.2-60.331 79.104-129.152 83.627-206.507-34.645 1.707-69.632 2.56-104.917 2.56z" />
<glyph unicode="&#xe921;" glyph-name="bxl-dropbox" data-tags="bxl-dropbox" d="M298.837 810.667l-213.504-136.064 213.504-135.936 213.419 135.936zM725.717 810.667l-213.461-136.064 213.461-135.936 213.461 135.936zM85.333 402.688l213.504-135.979 213.419 135.979-213.419 135.979zM725.717 538.667l-213.461-135.979 213.461-135.979 213.461 135.979zM298.837 221.397l213.419-136.064 213.461 136.064-213.461 135.936z" />
<glyph unicode="&#xe922;" glyph-name="bxl-drupal" data-tags="bxl-drupal" d="M489.557 344.747c-74.51 0-134.912-60.402-134.912-134.912s60.402-134.912 134.912-134.912v0c74.51 0 134.912 60.402 134.912 134.912s-60.402 134.912-134.912 134.912v0zM657.493 370.603c39.952-41.582 64.555-98.17 64.555-160.503 0-0.108 0-0.216 0-0.324v0.017c0-0.033 0-0.073 0-0.113 0-78.623-39.085-148.118-98.885-190.114l-0.741-0.494c111.317 34.261 203.563 118.059 244.779 219.392 57.088 140.288 3.84 245.803-85.291 341.547 2.816-12.288 4.395-25.259 4.395-38.315-0.035-80.779-53.833-148.982-127.551-170.774l-1.26-0.319zM504.875 541.397c0-57.173 46.379-103.211 103.253-103.211s103.381 46.379 103.381 103.211c-0.024 56.945-46.181 103.101-103.123 103.125h-0.002c-0.013 0-0.028 0-0.043 0-57.023 0-103.272-46.129-103.466-103.107v-0.019zM311.595 60.032c-33.86 40.043-54.443 92.26-54.443 149.285 0 0.167 0 0.334 0.001 0.501v-0.026c0 0.062 0 0.135 0 0.209 0 118.574 88.897 216.385 203.68 230.421l1.12 0.112c-19.757 28.223-31.571 63.269-31.571 101.075 0 98.074 79.505 177.579 177.579 177.579 8.547 0 16.952-0.604 25.177-1.771l-0.944 0.11c-58.069 50.176-116.224 101.077-162.091 156.672 23.339-243.797-221.867-155.221-312.832-379.904-60.672-150.485-5.888-336.725 154.325-434.261z" />
<glyph unicode="&#xe923;" glyph-name="bxl-ebay" data-tags="bxl-ebay" d="M299.563 443.264v175.232h42.709v-107.733c21.035 25.003 49.92 32.256 78.421 32.256 47.701 0 100.736-32.171 100.736-101.675 0-8.32-0.597-16.256-2.176-23.851 8.533 34.005 45.355 46.507 103.168 47.915 18.176 0.683 38.997 0.683 55.552 0.683v4.736c0 31.488-19.797 44.331-54.443 44.331-25.685 0-44.373-10.667-46.507-28.843h-45.397c4.821 45.909 53.461 57.685 95.659 57.685 37.931 0 71.083-9.6 86.059-36.352l-15.573 29.952h50.219l73.216-146.901 73.216 146.987h44.245l-132.48-260.181h-47.957l38.144 72.661-82.987 155.989c4.608-9.088 7.125-19.84 7.125-33.152v-87.68c0-12.331 0.384-24.491 1.451-35.755h-39.723c-1.023 8.175-1.612 17.646-1.621 27.252v0.012c-21.461-26.155-47.061-34.261-82.645-34.261-52.736 0-80.939 27.819-80.939 60.416 0 5.333 0.555 10.069 1.323 14.421-10.709-44.416-48.427-74.24-98.56-74.24-31.019 0-60.331 11.179-78.379 33.067 0-8.576-0.555-17.579-1.408-26.069h-42.069c0.768 13.824 1.451 30.421 1.451 44.245v37.419h-172.032c2.304-38.997 29.141-61.909 66.005-61.909 25.557 0 48.256 10.667 55.851 33.067h44.16c-8.533-45.995-57.344-61.397-99.371-61.397-76.331-0.768-110.165 41.515-110.165 98.176 0 62.421 34.944 103.595 111.019 103.595 60.117 0 104.32-31.488 104.704-99.925v-0.171zM624.981 436.736c-39.040-1.152-63.104-8.235-63.104-33.835 0-16.597 12.843-34.517 46.507-34.517 44.885 0 68.907 24.491 68.907 64.597v4.651c-16.043 0-35.243-0.256-52.864-0.853h0.469l0.085-0.043zM409.131 370.005c39.552 0 66.816 28.672 66.816 71.936s-27.392 71.936-67.413 71.936c-39.595 0-67.328-28.672-67.328-71.936s27.264-71.936 66.773-71.936h1.152zM254.208 459.52c-1.579 40.064-30.464 55.083-61.44 55.083-33.621 0-60.331-16.853-64.683-55.083h126.123z" />
<glyph unicode="&#xe924;" glyph-name="bxl-edge" data-tags="bxl-edge" d="M868.224 376.149h-489.6c0-18.475 2.688-35.2 8.32-50.261 11.831-29.517 32.32-53.49 58.298-69.363l0.624-0.355c13.184-8.363 27.563-15.317 42.88-20.651 15.189-5.547 31.104-9.643 47.232-12.288 35.029-5.547 70.741-5.248 105.685 0.896 38.879 7.3 73.492 18.88 105.789 34.495l-2.493-1.087c16.768 7.68 33.707 16.043 51.243 25.344v-162.347c-32.994-16.533-71.514-30.831-111.714-40.89l-3.955-0.838c-19.499-4.779-39.253-8.363-59.563-10.496-20.736-2.304-41.6-3.371-62.464-3.371-0.19 0-0.415-0.001-0.64-0.001-29.305 0-57.767 3.61-84.966 10.408l2.406-0.509c-28.554 7.072-53.589 16.843-76.931 29.36l1.753-0.859c-24.524 13.093-45.675 28.146-64.662 45.525l0.235-0.213c-38.481 34.806-67.276 79.636-82.304 130.381l-0.512 2.013c-7.234 24.445-11.397 52.53-11.397 81.588 0 0.612 0.002 1.223 0.006 1.834v-0.094c0 31.445 4.309 61.397 12.928 90.027 17.658 57.927 51.409 106.555 96.020 142.147l0.578 0.445c22.674 18.043 48.681 33.343 76.697 44.726l2.108 0.757c-15.706-15.731-28.274-34.6-36.682-55.586l-0.396-1.118c-8.221-19.116-14.245-41.294-16.998-64.475l-0.111-1.147h272.683c0 27.563-2.688 51.499-8.363 72.064-5.589 20.651-14.592 37.76-27.179 51.243-12.904 13.874-29.167 24.452-47.502 30.452l-0.796 0.226c-19.712 6.827-43.563 10.283-71.467 10.283-32.896 0-65.835-4.736-98.731-14.677-35.788-10.705-66.909-24.565-95.779-41.805l1.912 1.058c-29.653-17.579-56.96-38.272-81.877-61.952-23.756-22.687-44.544-48.155-61.933-75.967l-0.958-1.643c3.584 31.659 10.539 62.891 20.693 93.013 10.767 31.62 23.926 58.947 39.88 84.34l-0.968-1.652c16.434 25.964 34.79 48.47 55.502 68.561l0.093 0.090c20.512 20.1 43.705 37.584 68.964 51.838l1.649 0.856c23.962 13.691 51.686 25.237 80.886 33.204l2.528 0.588c28.612 6.851 61.472 10.798 95.248 10.837h0.027c19.627 0 39.125-1.749 58.667-5.291 19.499-3.584 38.528-8.363 57.131-14.592 37.786-13.008 70.53-30.941 99.552-53.445l-0.779 0.581c28.327-22.185 52.481-47.994 72.246-77.030l0.757-1.178c19.755-29.525 34.688-62.251 45.013-97.792s15.573-72.576 15.573-111.019v-95.147h-0.085z" />
<glyph unicode="&#xe925;" glyph-name="bxl-etsy" data-tags="bxl-etsy" d="M475.264 360.192c-18.688 0-29.568 12.544-29.568 45.141v115.029l62.123-4.779 3.157 29.611-63.829-3.157v65.28h-18.688c-9.216-51.243-32.384-69.888-63.488-73.045v-15.531h37.077v-130.645c0-35.669 25.088-54.229 56.021-54.229 24.96 0 51.285 10.88 60.501 32.555l-9.259 10.88c-4.608-7.68-17.152-17.109-34.048-17.109zM326.187 394.453c-12.544-29.44-32.725-31.104-52.907-31.104h-65.28c-21.675 0-31.104 7.936-31.104 26.453v96.341s46.592 0 62.165-1.664c12.416-1.493 18.688-4.651 23.296-20.181l4.608-21.803h18.688l-1.664 55.851 3.157 54.528h-18.517l-6.272-24.96c-3.115-17.024-6.272-18.688-23.296-21.675-21.675-1.621-62.165-1.621-62.165-1.621v114.944c0 4.779 0 6.272 7.893 6.272h97.749c17.152 0 26.453-13.909 32.555-41.813l6.272-21.845h17.024c1.664 62.165 3.157 88.491 3.157 88.491s-41.856-4.48-66.645-4.48h-124.288l-65.28 1.323v-17.024l21.675-4.565c15.659-3.157 20.267-6.272 20.267-20.181 0 0 1.664-41.984 1.664-111.744 0-69.931-1.664-111.915-1.664-111.915 0-12.416-4.608-17.024-20.267-20.181l-21.675-4.821v-16.896l66.773 1.493h111.915c24.789 0 83.84-1.493 83.84-1.493 1.451 15.403 9.216 83.797 10.88 91.563h-15.701l-16.853-37.291zM583.893 506.325c0 20.224 18.645 27.947 37.333 27.947 15.36 0 27.861-6.272 31.104-13.867l10.88-31.104 15.403 1.493c0 15.531 1.621 35.755 4.736 51.243-13.995 6.272-41.941 9.429-60.629 9.429-41.984 0-74.539-18.816-74.539-59.179 0-71.424 104.107-55.893 104.107-108.757 0-17.024-10.923-31.104-37.376-31.104-24.789 0-35.712 12.544-40.32 24.96l-12.373 29.568h-15.744c1.707-20.309 3.157-40.448 0-58.965 0 0 32.725-12.544 65.323-12.544 43.605 0 79.275 21.632 79.275 62.165 0 71.424-107.179 60.629-107.179 108.715zM855.637 546.645v-15.531l11.051-3.157c10.752-2.987 15.36-7.595 15.36-15.488 0-4.608-1.451-6.144-3.115-12.416-4.608-12.416-34.219-85.461-49.579-118.059-8.909 19.574-24.703 61.228-39.649 103.284l-6.986 22.54c-1.493 3.115-1.493 4.608-1.493 6.229 0 6.315 4.48 12.459 15.403 13.909l14.037 3.157v15.531l-57.429-3.115-46.763 1.664v-15.701l7.979-2.944c10.709-3.157 12.245-4.693 20.011-21.845 29.568-65.28 62.165-150.571 73.216-177.067-24.917-43.477-51.371-55.851-71.552-55.851-12.416 0-17.024 6.272-18.56 14.037l-6.229 32.555-17.067-1.493c-3.115-20.352-6.272-41.984-10.88-59.008 12.245-7.765 26.283-12.544 44.928-12.501 29.483 0 71.467 7.765 111.915 99.499l68.309 159.872c6.187 12.501 7.765 14.037 23.296 20.309l7.808 6.144v15.445l-40.32-1.451-43.691 1.451z" />
<glyph unicode="&#xe926;" glyph-name="bxl-facebook" data-tags="bxl-facebook" d="M571.605 64.128v349.696h117.973l17.536 136.917h-135.509v87.211c0 39.509 11.008 66.56 67.712 66.56h71.851v122.069c-30.465 3.455-65.777 5.426-101.55 5.426-1.304 0-2.608-0.003-3.911-0.008l0.201 0.001c-104.277 0-175.872-63.659-175.872-180.523v-100.48h-117.205v-136.917h117.461v-349.952h141.312z" />
<glyph unicode="&#xe927;" glyph-name="bxl-facebook-circle" data-tags="bxl-facebook-circle" d="M512.043 874.581c-235.605 0-426.624-191.019-426.624-426.624 0-212.907 155.989-389.376 359.979-421.504v298.155h-108.373v123.349h108.373v93.995c0 107.008 63.701 166.016 161.109 166.016 46.677 0 95.573-8.32 95.573-8.32v-104.917h-53.931c-52.907 0-69.461-32.939-69.461-66.688v-80h118.229l-18.901-123.349h-99.328v-298.155c203.989 31.957 359.979 208.469 359.979 421.419 0 235.605-191.019 426.624-426.624 426.624z" />
<glyph unicode="&#xe928;" glyph-name="bxl-facebook-square" data-tags="bxl-facebook-square" d="M853.333 832h-682.667c-23.564 0-42.667-19.103-42.667-42.667v0-682.667c0-23.564 19.103-42.667 42.667-42.667v0h367.573v296.96h-99.755v116.267h99.755v85.333c0 99.2 60.587 153.259 149.333 153.259 29.824 0.085 59.691-1.451 89.387-4.565v-103.253h-61.227c-48.128 0-57.515-22.955-57.515-56.533v-74.027h115.072l-14.933-116.267h-100.181v-297.173h195.157c23.564 0 42.667 19.103 42.667 42.667v0 682.667c0 23.564-19.103 42.667-42.667 42.667v0z" />
<glyph unicode="&#xe929;" glyph-name="bxl-figma" data-tags="bxl-figma" d="M654.165 590.165c76.682 2.374 137.942 65.105 137.942 142.144s-61.26 139.77-137.724 142.139l-0.218 0.005h-284.331c-76.682-2.374-137.942-65.105-137.942-142.144s61.26-139.77 137.724-142.139l0.218-0.005c-77.473-1.385-139.745-64.513-139.745-142.187s62.272-140.802 139.615-142.185l0.129-0.002c-77.026-1.947-138.725-64.851-138.725-142.165s61.698-140.219 138.545-142.162l0.18-0.004c78.511 0.049 142.141 63.694 142.165 142.206v426.498h142.165zM796.331 448c0-78.516-63.65-142.165-142.165-142.165s-142.165 63.65-142.165 142.165c0 78.516 63.65 142.165 142.165 142.165s142.165-63.65 142.165-142.165z" />
<glyph unicode="&#xe92a;" glyph-name="bxl-firebase" data-tags="bxl-firebase" d="M223.531 317.312l84.096 541.099c1.478 9.334 9.467 16.385 19.103 16.385 7.331 0 13.71-4.082 16.985-10.097l0.051-0.101 90.453-169.771-210.688-377.515zM820.907 186.027l-80.085 497.963c-1.632 9.185-9.556 16.069-19.087 16.069-5.299 0-10.101-2.128-13.598-5.575l0.002 0.002-505.045-508.459 279.467-157.483c17.536-9.813 38.912-9.813 56.448 0l281.899 157.483zM593.792 620.587l-64.725 123.861c-3.298 6.174-9.7 10.305-17.067 10.305s-13.768-4.13-17.016-10.201l-0.051-0.103-284.203-509.312 383.061 385.451z" />
<glyph unicode="&#xe92b;" glyph-name="bxl-firefox" data-tags="bxl-firefox" d="M923.051 484.779c-0.667 4.714-1.561 8.84-2.721 12.853l0.161-0.651-7.979-10.069c-1.537 19.999-4.99 38.516-10.211 56.275l0.483-1.917c-7.2 24.87-15.781 46.255-26.185 66.551l0.969-2.082c-6.962 15.013-14.647 27.895-23.48 39.879l0.44-0.626c-4.651 7.253-8.661 12.629-9.429 13.739-15.445 25.131-32.725 40.405-53.291 69.163-12.377 20.616-21.539 44.693-26.055 70.371l-0.185 1.267c-5.234-13.262-9.715-28.974-12.686-45.213l-0.242-1.592c-20.608 20.864-38.955 36.096-49.835 46.080-54.059 50.475-47.488 76.373-47.488 76.373s-100.864-112.427-57.259-229.419c15.754-40.789 41.67-74.71 74.702-99.73l0.562-0.408c42.197-34.688 87.552-61.952 111.317-132.309-19.525 37.307-48.115 67.539-82.925 88.487l-1.001 0.559c10.795-25.685 16.213-52.565 15.829-80.384-0.073-105.23-85.395-190.507-190.635-190.507-0.12 0-0.24 0-0.36 0h0.019c-0.316-0.002-0.689-0.003-1.063-0.003-14.526 0-28.656 1.696-42.203 4.901l1.24-0.247c-17.771 3.429-33.59 9.033-48.207 16.632l0.975-0.461c-22.705 13.634-41.664 31.124-56.537 51.755l-0.38 0.555v0.299c0.913-0.416 1.983-0.769 3.096-1.006l0.104-0.018c7.979-2.859 15.872-5.035 24.192-6.528 9.362-2.053 20.116-3.229 31.145-3.229 23.478 0 45.71 5.33 65.555 14.845l-0.913-0.394c30.208 16.896 48.597 29.227 63.317 24.491 14.848-4.651 25.941 9.387 15.915 24.107-14.599 18.775-37.19 30.739-62.575 30.739-4.876 0-9.65-0.441-14.282-1.287l0.484 0.073c-30.336-4.309-58.027-25.557-97.28-4.992-2.859 1.365-4.992 2.816-7.509 4.309-2.56 1.792 8.619-2.176 5.717-0.384-9.549 4.716-17.683 9.64-25.356 15.164l0.524-0.359c-0.384 0.384 6.187-1.835 5.376-1.408-10.331 7.066-18.963 15.78-25.725 25.854l-0.217 0.343c-3.558 6.517-5.651 14.274-5.651 22.521 0 6.868 1.452 13.398 4.065 19.298l-0.12-0.304c3.731 6.614 9.292 11.818 15.996 15.011l0.218 0.093 8.192-4.267s-2.517 4.267-3.627 6.443c0.427 0.341 0.811 0 1.493 0.341 4.352-1.792 14.037-6.784 19.413-10.069 3.661-1.945 6.693-4.622 8.992-7.857l0.053-0.079s1.835 0.725 0.384 4.608c-1.814 4.787-5.114 8.666-9.329 11.166l-0.101 0.055h0.768c3.968-2.176 7.595-4.352 11.136-7.125 3.243 7.936 5.077 15.701 4.779 24.021 0.035 0.59 0.055 1.28 0.055 1.975 0 4.074-0.692 7.987-1.965 11.626l0.075-0.247c-1.493 2.859 0.725 3.968 3.2 1.067-0.442 2.435-1.198 4.61-2.237 6.615l0.061-0.129s1.451 2.176 2.176 2.645c1.835 1.707 3.584 3.499 5.803 4.565 12.501 7.893 25.557 14.805 39.253 20.224 9.267 3.625 16.504 6.895 23.568 10.457l-1.595-0.729c2.859 1.792 5.419 3.584 7.936 5.803 9.387 7.893 15.531 18.688 17.621 30.635 0.427 1.707 0.427 3.157 0.427 4.565v2.944c-1.451 6.144-11.904 10.453-66.261 15.872-19.309 3.031-34.563 17.438-38.809 36.036l-0.061 0.316v-0.299c-0.607-1.445-1.347-3.512-2.009-5.614l-0.167-0.615c0.683 2.261 1.408 4.011 2.176 6.229v0.299c10.79 27.617 29.261 50.27 52.782 65.942l0.509 0.319c1.323 1.067-5.376-0.299-3.968 0.725 4.352 2.176 9.003 4.395 14.037 6.187 2.517 0.768-10.453 5.717-21.973 4.693-7.397-0.537-14.259-2.212-20.618-4.854l0.437 0.161c2.859 2.091 10.752 5.035 8.96 5.035-15.586-2.806-29.49-8.209-41.92-15.79l0.533 0.302c0 1.408 0.427 2.56 0.768 3.541-10.354-4.425-18.976-11.185-25.491-19.65l-0.109-0.148v4.779c-4.583-3.754-8.695-7.663-12.502-11.852l-0.085-0.095h-0.341c-17.908 7.14-38.662 11.28-60.383 11.28-11.929 0-23.567-1.249-34.789-3.623l1.092 0.193-0.341 0.384h0.341c-6.523 5.236-12.011 11.431-16.334 18.422l-0.178 0.308-0.427-0.299-0.64 0.683c-2.261 2.901-3.968 6.485-6.272 10.496-1.707 2.56-3.157 5.803-4.949 8.96 0 0 0 0.341-0.341 0.341-0.427 0-1.109-3.285-1.408-2.091-4.873 12.205-7.7 26.35-7.7 41.155 0 1.327 0.023 2.648 0.068 3.964l-0.005-0.191h-0.341c-8.924-5.956-15.636-14.615-19.018-24.793l-0.097-0.337c-1.749-3.669-2.859-5.461-3.925-7.637v1.195l1.024 5.333c-0.256-0.384-0.256-0.725-0.725-1.067-2.446-2.845-4.581-6.071-6.282-9.546l-0.118-0.267c-1.735-2.974-3.231-6.412-4.308-10.031l-0.086-0.337v1.792c0 1.451 0.384 3.627 0 2.859l-0.384-0.981c-11.024-23.686-18.684-51.188-21.507-80.107l-0.082-1.045c-0.683-5.035-0.683-9.728-0.683-14.379v-0.768c-7.932-8.63-15.168-18.16-21.465-28.333l-0.466-0.808c-19.708-32.663-35.563-70.474-45.564-110.601l-0.601-2.85c6.869 15.104 15.104 29.909 24.875 43.563-17.791-43.53-28.118-94.044-28.118-146.97 0-0.141 0-0.281 0-0.422v0.022c3.243 14.763 7.211 29.184 11.861 43.605-0.27-5.304-0.424-11.517-0.424-17.766 0-56.415 12.532-109.903 34.964-157.832l-0.961 2.286c34.401-76.034 89.321-137.694 157.724-179.437l1.764-1c26.589-18.434 57.282-33.641 90.111-44.049l2.433-0.666c4.352-1.408 9.088-3.157 13.355-4.651-1.451 0.768-2.517 1.493-3.925 1.792 35.978-11.126 77.344-17.561 120.204-17.621h0.031c144.512 0 192.043 55.125 196.693 60.501 6.827 6.443 12.928 14.123 16.896 23.083 2.901 1.024 5.419 2.133 8.32 3.584l1.749 0.683c2.176 1.109 3.2 1.451 3.2 1.451 23.374 11.072 43.515 23.825 61.886 38.678l-0.574-0.449c27.48 20.098 47.576 48.857 56.345 82.21l0.231 1.033c5.333 12.203 5.333 25.6 1.024 38.144 2.133 3.584 4.011 6.869 4.309 7.595 29.792 47.047 48.485 103.776 51.133 164.668l0.024 0.708v4.949c0.003 0.417 0.005 0.91 0.005 1.404 0 12.649-1.119 25.038-3.264 37.071l0.188-1.269z" />
<glyph unicode="&#xe92c;" glyph-name="bxl-flickr" data-tags="bxl-flickr" d="M476.032 448c0-107.771-87.365-195.136-195.136-195.136s-195.136 87.365-195.136 195.136v0c0 107.771 87.365 195.136 195.136 195.136s195.136-87.365 195.136-195.136v0zM938.24 448c0-107.771-87.365-195.136-195.136-195.136s-195.136 87.365-195.136 195.136v0c0 107.771 87.365 195.136 195.136 195.136s195.136-87.365 195.136-195.136v0z" />
<glyph unicode="&#xe92d;" glyph-name="bxl-flickr-square" data-tags="bxl-flickr-square" d="M853.333 832h-682.667c-23.564 0-42.667-19.103-42.667-42.667v0-682.667c0-23.564 19.103-42.667 42.667-42.667v0h682.667c23.564 0 42.667 19.103 42.667 42.667v0 682.667c0 23.564-19.103 42.667-42.667 42.667v0zM373.205 330.837c-64.647 0.049-117.035 52.466-117.035 117.12 0 64.684 52.436 117.12 117.12 117.12 64.669 0 117.096-52.412 117.12-117.075v-0.002c0-0.025 0-0.055 0-0.085 0-64.66-52.417-117.077-117.077-117.077-0.045 0-0.090 0-0.135 0h0.007zM650.795 330.837c-0.006 0-0.014 0-0.021 0-64.719 0-117.184 52.465-117.184 117.184 0 64.711 52.453 117.172 117.162 117.184h0.001c0.006 0 0.014 0 0.021 0 64.719 0 117.184-52.465 117.184-117.184 0-64.711-52.453-117.172-117.162-117.184h-0.001z" />
<glyph unicode="&#xe92e;" glyph-name="bxl-flutter" data-tags="bxl-flutter" d="M593.067 874.24l-426.667-426.24 131.84-131.84 115.627 115.2 443.307 443.307-264.107-0.427zM628.053 251.307l229.973 229.547h-253.013c-4.693 0-11.093 0-14.507-2.987l-95.147-95.147-131.84-130.987 131.84-132.267 91.733-91.733c2.987-2.987 5.973-7.253 11.093-6.4h258.987z" />
<glyph unicode="&#xe92f;" glyph-name="bxl-foursquare" data-tags="bxl-foursquare" d="M748.757 722.901l-17.195-90.155c-2.091-9.771-14.379-20.053-25.813-20.053h-160.427c-18.133 0-31.104-12.629-31.104-30.464v-19.755c0-18.347 13.099-30.933 31.147-30.933h136.277c12.715 0 25.216-14.080 22.357-27.563l-17.237-88.875c-1.579-7.723-10.112-20.267-25.259-20.267h-111.317c-20.352 0-26.325-2.944-39.936-19.371-13.483-16.853-135.467-163.285-135.467-163.285-1.109-1.408-2.304-0.939-2.304 0.469v511.744c0 11.563 9.984 25.088 25.003 25.088h330.923c12.075 0 23.424-11.477 20.352-26.368v-0.213zM763.307 369.28c4.736 18.645 56.277 282.88 73.472 366.635zM773.248 834.517h-412.416c-56.747 0-73.515-42.752-73.515-69.76v-655.061c0-30.293 16.256-41.6 25.429-45.312 9.131-3.712 34.432-6.869 49.621 10.539 0 0 194.688 225.963 197.973 229.248 5.333 5.035 5.333 5.035 10.155 5.035h126.037c53.12 0 61.355 37.76 67.157 59.947 4.864 18.304 56.533 282.539 73.429 366.72 13.099 63.829-3.371 98.603-63.787 98.603h-0.085z" />
<glyph unicode="&#xe930;" glyph-name="bxl-git" data-tags="bxl-git" d="M922.453 486.059l-372.523 372.437c-9.967 9.923-23.712 16.057-38.891 16.057s-28.924-6.134-38.893-16.059l0.002 0.002-77.184-77.269 98.091-98.133c6.241 2.18 13.436 3.44 20.924 3.44 36.1 0 65.365-29.265 65.365-65.365 0-7.619-1.303-14.933-3.699-21.732l0.141 0.458 94.464-94.592c6.438 2.333 13.868 3.682 21.614 3.682 36.053 0 65.28-29.227 65.28-65.28 0-18.142-7.401-34.555-19.347-46.386l-0.005-0.005c-25.557-25.6-66.816-25.6-92.416 0-11.844 11.857-19.17 28.231-19.17 46.315 0 8.865 1.76 17.319 4.95 25.032l-0.159-0.435-88.491 88.021v-231.979c6.229-3.029 12.203-7.211 17.365-12.373 11.77-11.851 19.045-28.18 19.045-46.208s-7.275-34.357-19.049-46.212l0.004 0.004c-11.863-11.882-28.263-19.233-46.379-19.233s-34.515 7.351-46.378 19.232l-0.001 0.001c-11.837 11.804-19.161 28.13-19.161 46.165s7.324 34.361 19.159 46.164l0.002 0.002c6.485 6.4 13.739 11.264 21.504 14.464v234.24c-23.976 10.005-40.52 33.257-40.52 60.373 0 9.135 1.878 17.832 5.268 25.726l-0.162-0.424-96.427 96.896-255.445-255.232c-21.333-21.504-21.333-56.32 0-77.824l372.523-372.437c9.934-9.959 23.672-16.12 38.848-16.12s28.914 6.161 38.847 16.119l370.774 370.732c10.031 9.933 16.242 23.708 16.242 38.933 0 15.162-6.159 28.885-16.112 38.804l-0.002 0.002z" />
<glyph unicode="&#xe931;" glyph-name="bxl-github" data-tags="bxl-github" d="M513.109 874.667c-235.051 0-425.557-190.507-425.557-425.557 0-187.989 121.899-347.52 291.029-403.84 21.291-3.84 28.971 9.259 28.971 20.523 0 10.112-0.341 36.907-0.469 72.363-118.4-25.685-143.403 57.088-143.403 57.088-19.285 49.152-47.232 62.251-47.232 62.251-38.613 26.411 2.944 25.813 2.944 25.813 42.752-2.987 65.152-43.861 65.152-43.861 37.973-65.024 99.669-46.251 123.819-35.371 3.883 27.52 14.976 46.293 27.093 56.917-94.464 10.709-193.792 47.232-193.792 210.347 0 46.379 16.597 84.437 43.691 114.133-4.309 10.795-19.029 54.101 4.224 112.64 0 0 35.712 11.477 116.992-43.563 31.915 9.029 68.579 14.257 106.451 14.336h0.045c37.912-0.063 74.577-5.293 109.364-15.021l-2.868 0.685c81.323 55.083 116.992 43.563 116.992 43.563 23.253-58.539 8.661-101.845 4.224-112.64 27.307-29.696 43.691-67.712 43.691-114.133 0-163.541-99.413-199.467-194.219-210.005 15.147-13.141 28.8-39.083 28.8-78.763 0-56.917-0.512-102.827-0.512-116.779 0-11.392 7.595-24.619 29.312-20.437 169.045 56.405 290.816 215.808 290.816 403.755 0 235.051-190.507 425.557-425.557 425.557z" />
<glyph unicode="&#xe932;" glyph-name="bxl-gitlab" data-tags="bxl-gitlab" d="M891.392 538.069c-0.316 1.462-0.684 2.704-1.13 3.908l0.064-0.196-89.771 276.437c-4.946 14.263-18.268 24.321-33.938 24.321-0.069 0-0.137 0-0.206-0.001h0.011c-0.063 0-0.138 0.001-0.213 0.001-15.606 0-28.832-10.194-33.382-24.286l-0.069-0.248-85.589-263.467h-270.251l-85.675 263.509c-4.634 14.342-17.868 24.533-33.482 24.533-0.019 0-0.038 0-0.056 0h-0.253c-0.001 0-0.002 0-0.003 0-15.726 0-29.077-10.164-33.844-24.282l-0.074-0.252-89.856-276.821c0-0.213-0.213-0.427-0.299-0.683l-45.525-139.989c-1.606-4.738-2.533-10.196-2.533-15.87 0-16.928 8.25-31.929 20.948-41.203l0.145-0.101 393.685-286.123c7.125-5.163 16.768-5.12 23.808 0.128l393.771 285.995c12.824 9.419 21.055 24.441 21.055 41.385 0 5.643-0.913 11.073-2.599 16.15l0.104-0.362-44.843 137.515zM766.72 792.064l77.184-237.483h-154.411l77.227 237.483zM257.28 792.064l77.312-237.483h-154.197l76.885 237.483zM130.048 375.979c-2.739 1.983-4.5 5.171-4.5 8.77 0 1.197 0.195 2.348 0.554 3.424l-0.022-0.076 33.835 103.979 248.192-318.123-278.059 202.027zM194.005 514.176h153.643l109.781-337.749-263.424 337.749zM511.957 138.965l-121.856 375.381h243.968l-76.459-235.307-45.653-140.075zM566.656 176.384l105.259 323.755 4.523 14.037h153.771l-263.552-337.792zM893.952 375.979l-278.144-201.941 0.939 1.237 247.211 316.8 33.792-103.936c0.381-1.051 0.601-2.265 0.601-3.53 0-3.535-1.72-6.669-4.368-8.61l-0.030-0.021z" />
<glyph unicode="&#xe933;" glyph-name="bxl-google" data-tags="bxl-google" d="M865.408 518.144h-355.285v-147.243h204.459c-19.029-93.568-98.688-147.328-204.459-147.328-0.114 0-0.249 0-0.384 0-124.183 0-224.853 100.67-224.853 224.853 0 0.15 0 0.3 0 0.45v-0.023c0 0.114 0 0.249 0 0.384 0 124.183 100.67 224.853 224.853 224.853 0.135 0 0.27 0 0.406 0h-0.021c53.717 0 102.272-19.072 140.373-50.261l110.933 110.891c-67.584 58.923-154.24 95.275-251.307 95.275-0.33 0.001-0.72 0.002-1.111 0.002-209.909 0-380.075-170.165-380.075-380.075 0-0.391 0.001-0.781 0.002-1.172v0.061c-0.001-0.343-0.002-0.748-0.002-1.154 0-209.886 170.146-380.032 380.032-380.032 0.406 0 0.811 0.001 1.217 0.002h-0.063c190.592 0 363.904 138.624 363.904 381.184 0 22.528-3.456 46.805-8.619 69.333z" />
<glyph unicode="&#xe934;" glyph-name="bxl-google-cloud" data-tags="bxl-google-cloud" d="M832.469 545.195c-18.002 64.884-53.174 120.024-100.316 162.011l-0.334 0.293-1.493-1.493 0.213 1.792c-58.438 51.743-135.752 83.339-220.445 83.339-152.985 0-281.891-103.094-321.035-243.598l-0.557-2.343c1.323 0.555 2.816 0.555 4.224 0.981-64.924-43.807-107.052-117.095-107.052-200.223 0-77.478 36.596-146.409 93.445-190.449l0.551-0.411 0.256 0.256-0.256-1.024c39.644-30.201 89.862-48.386 144.328-48.386 0.365 0 0.729 0.001 1.094 0.002h184.307l1.024-1.024h185.216c0.572-0.005 1.249-0.008 1.926-0.008 132.996 0 240.811 107.815 240.811 240.811 0 82.648-41.636 155.572-105.077 198.941l-0.827 0.534zM695.68 253.141h-185.216l-0.256-0.256v1.323h-185.173c-13.141 0-26.069 2.816-38.059 8.235l0.085 0.043c-32.414 14.88-54.519 47.058-54.519 84.399 0 51.134 41.452 92.587 92.587 92.587 37.329 0 69.499-22.091 84.148-53.914l0.237-0.575 107.435 107.435c-35.181 45.508-85.529 77.802-143.363 89.345l-1.533 0.255c0.768 0.384 1.493 1.024 2.133 0.896 33.945 37.181 82.622 60.417 136.727 60.417 44.236 0 84.843-15.533 116.667-41.441l-0.338 0.266h1.963c40.766-34.156 66.505-85.088 66.505-142.031 0-1.172-0.011-2.342-0.033-3.509l0.003 0.175v-18.475c51.134 0 92.587-41.452 92.587-92.587s-41.452-92.587-92.587-92.587v0z" />
<glyph unicode="&#xe935;" glyph-name="bxl-google-plus" data-tags="bxl-google-plus" d="M833.92 318.933v103.296h103.339v77.44h-103.339v103.296h-77.44v-103.296h-103.296v-77.44h103.296v-103.296zM343.552 605.781c48.341 0 80.896-20.651 99.413-38.229l73.472 71.253c-44.715 41.813-103.040 67.413-172.885 67.413-142.421 0.043-258.219-115.669-258.219-258.219s115.797-258.261 258.219-258.261c149.035 0 247.979 104.832 247.979 252.288 0 21.461-2.731 36.693-6.528 52.907h-241.579v-96.256h142.165c-6.741-40.576-43.136-109.056-142.037-109.056-85.461 0-155.179 71.040-155.179 158.037 0 87.125 69.717 158.123 155.179 158.123z" />
<glyph unicode="&#xe936;" glyph-name="bxl-google-plus-circle" data-tags="bxl-google-plus-circle" d="M939.264 449.109c-0.768 235.179-191.701 425.557-426.923 425.557-235.307 0-426.197-190.379-426.965-425.557l-0.043 1.109v-4.779l0.043 0.981c0.725-235.221 191.616-425.685 426.965-425.685 235.264 0 426.155 190.379 426.923 425.557l0.043-1.109v5.035l-0.043-1.109zM395.989 253.568c-107.051 0-194.048 86.997-194.048 194.091s86.997 194.091 194.048 194.091c52.48 0 96.341-19.243 129.963-50.688l-55.253-53.547c-13.867 13.184-38.357 28.715-74.709 28.715-64.213 0-116.608-53.376-116.608-118.827 0-65.408 52.437-118.784 116.608-118.784 74.325 0 101.717 51.456 106.752 81.92h-106.837v72.448h181.547c2.816-12.203 4.907-23.637 4.907-39.765 0-110.805-74.325-189.653-186.368-189.653zM842.197 428.288h-77.611v-77.611h-58.197v77.611h-77.653v58.197h77.653v77.653h58.197v-77.653h77.611v-58.197z" />
<glyph unicode="&#xe937;" glyph-name="bxl-html5" data-tags="bxl-html5" d="M176.469 831.488h671.104l-61.056-689.067-275.243-77.909-273.664 77.909-61.141 689.067zM401.152 519.936l-7.381 86.827 321.408-0.085 7.381 83.755-421.12 0.085 22.272-255.915h291.627l-10.368-109.483-92.971-25.685-94.464 25.813-6.016 67.413h-83.371l10.539-133.248 173.312-46.336 171.861 46.080 23.808 260.736-306.517 0.043z" />
<glyph unicode="&#xe938;" glyph-name="bxl-imdb" data-tags="bxl-imdb" d="M582.229 523.221c-2.432 1.365-6.827 2.048-13.355 2.048v-151.125c8.576 0 13.824 1.749 15.829 5.205s2.987 12.843 2.987 28.16v89.259c0 10.411-0.341 17.067-0.981 20.011-0.521 2.754-2.17 5.047-4.438 6.419l-0.042 0.024zM731.52 472.789c-3.499 0-5.845-1.323-6.912-3.883-1.067-2.603-1.579-9.131-1.579-19.627v-60.843c0-10.112 0.597-16.597 1.749-19.456 1.237-2.816 3.669-4.267 7.168-4.267 3.669 0 8.491 1.493 9.6 4.395 1.152 2.944 1.664 9.984 1.664 21.12v59.051c0 9.728-0.597 16.085-1.835 19.072-1.365 2.944-6.272 4.437-9.856 4.437zM853.333 832h-682.667c-23.564 0-42.667-19.103-42.667-42.667v0-682.667c0-23.564 19.103-42.667 42.667-42.667v0h682.667c23.564 0 42.667 19.103 42.667 42.667v0 682.667c0 23.564-19.103 42.667-42.667 42.667v0zM282.923 334.379h-59.819v230.272h59.819v-230.272zM488.661 334.379h-52.181l-0.256 155.435-20.907-155.435h-37.333l-22.059 152.021-0.171-152.021h-52.352v230.272h77.611c2.176-13.952 4.565-30.293 7.083-49.067l8.576-58.496 13.824 107.563h78.165v-230.272zM644.992 402.688c0-20.651-1.152-34.475-3.072-41.387-1.657-6.592-5.24-12.184-10.109-16.304l-0.046-0.038c-5.030-3.967-11.102-6.85-17.733-8.189l-0.272-0.046c-7.083-1.579-17.835-2.347-32.171-2.347h-72.491v230.272h44.672c28.928 0 45.653-1.323 55.851-3.968 10.24-2.645 18.005-6.997 23.253-13.056 5.333-6.059 8.661-12.8 9.984-20.267 1.323-7.424 2.176-22.016 2.176-43.776v-80.896zM800.896 387.243c0-13.824-0.981-24.107-2.816-30.848-2.29-7.391-6.945-13.484-13.065-17.547l-0.119-0.074c-6.496-4.651-14.603-7.438-23.361-7.438-0.367 0-0.734 0.005-1.099 0.015l0.054-0.001c-6.741 0-15.573 1.493-21.419 4.437-6.396 3.34-11.758 7.815-16.006 13.208l-0.079 0.104-3.755-14.677h-53.845v230.229h57.6v-74.88c4.325 5.16 9.66 9.321 15.719 12.21l0.281 0.121c5.845 2.731 14.677 4.096 21.504 4.096 7.936 0 14.848-1.237 20.651-3.712 9.817-4.015 16.976-12.715 18.748-23.245l0.025-0.179c0.683-4.267 0.981-13.355 0.981-27.221v-64.597z" />
<glyph unicode="&#xe939;" glyph-name="bxl-instagram" data-tags="bxl-instagram" d="M511.957 645.248c-108.961 0-197.291-88.33-197.291-197.291s88.33-197.291 197.291-197.291v0c108.961 0 197.291 88.33 197.291 197.291s-88.33 197.291-197.291 197.291v0zM511.957 319.829c-70.787 0-128.171 57.384-128.171 128.171s57.384 128.171 128.171 128.171v0c70.787 0 128.171-57.384 128.171-128.171s-57.384-128.171-128.171-128.171v0zM763.051 652.501c0-25.402-20.593-45.995-45.995-45.995s-45.995 20.593-45.995 45.995c0 25.402 20.593 45.995 45.995 45.995s45.995-20.593 45.995-45.995zM876.075 699.264c-20.413 51.727-60.604 91.905-111.011 111.835l-1.331 0.464c-27.629 10.696-59.584 17.207-92.967 17.915l-0.302 0.005c-41.088 1.792-54.101 2.304-158.293 2.304s-117.547 0-158.293-2.304c-33.65-0.676-65.581-7.191-95.096-18.568l1.912 0.648c-51.752-20.371-91.952-60.557-111.878-110.969l-0.463-1.329c-10.7-27.632-17.199-59.592-17.873-92.982l-0.005-0.288c-1.835-41.045-2.389-54.059-2.389-158.293 0-104.192 0-117.461 2.389-158.293 0.64-31.915 6.656-63.403 17.877-93.312 20.445-51.72 60.644-91.891 111.052-111.834l1.332-0.465c27.529-11.11 59.406-18.056 92.759-19.187l0.468-0.013c41.088-1.792 54.101-2.347 158.293-2.347s117.547 0 158.293 2.347c33.681 0.706 65.638 7.202 95.203 18.528l-1.934-0.651c51.721 20.44 91.901 60.62 111.876 111.010l0.465 1.332c11.221 29.867 17.237 61.355 17.877 93.269 1.835 41.045 2.389 54.059 2.389 158.293s0 117.461-2.389 158.293c-0.54 34.12-7.083 66.554-18.612 96.513l0.65-1.921zM824.107 292.565c-0.299-25.933-5.139-50.645-13.76-73.503l0.49 1.482c-13.243-33.648-39.387-59.779-72.181-72.703l-0.864-0.3c-21.138-8.091-45.58-12.928-71.107-13.268l-0.146-0.002c-40.533-1.877-51.968-2.347-155.904-2.347-104.021 0-114.645 0-155.947 2.347-25.656 0.324-50.085 5.162-72.664 13.755l1.453-0.486c-33.785 13.147-60.046 39.296-73.043 72.14l-0.301 0.862c-8.008 21.123-12.837 45.538-13.267 71.024l-0.002 0.187c-1.835 40.533-2.261 51.968-2.261 155.904 0 103.979 0 114.603 2.261 155.947 0.3 25.918 5.14 50.615 13.759 73.459l-0.49-1.48c13.013 33.664 39.68 60.16 73.344 73.045 21.125 8.065 45.548 12.9 71.052 13.268l0.158 0.002c40.576 1.835 51.968 2.347 155.947 2.347s114.645 0 155.904-2.347c25.67-0.318 50.115-5.158 72.707-13.755l-1.453 0.486c33.654-13.252 59.794-39.391 72.744-72.181l0.301-0.865c8.008-21.123 12.837-45.538 13.267-71.024l0.002-0.187c1.835-40.576 2.304-51.968 2.304-155.947 0-103.936 0-115.115-1.835-155.904h-0.469z" />
<glyph unicode="&#xe93a;" glyph-name="bxl-instagram-alt" data-tags="bxl-instagram-alt" d="M893.739 605.653c-0.468 34.089-6.985 66.519-18.523 96.454l0.646-1.905c-20.426 51.73-60.612 91.915-111.010 111.877l-1.331 0.465c-27.629 10.696-59.584 17.207-92.967 17.915l-0.302 0.005c-41.045 1.835-54.059 2.347-158.251 2.347s-117.547 0-158.293-2.347c-33.671-0.718-65.611-7.229-95.156-18.571l1.93 0.651c-51.739-20.412-91.929-60.603-111.877-111.010l-0.464-1.331c-10.721-27.619-17.222-59.568-17.873-92.95l-0.004-0.277c-1.835-41.088-2.389-54.101-2.389-158.293s0-117.504 2.389-158.293c0.64-31.915 6.656-63.403 17.877-93.312 20.445-51.72 60.644-91.891 111.052-111.834l1.332-0.465c27.529-11.11 59.406-18.056 92.759-19.187l0.468-0.013c41.088-1.835 54.101-2.389 158.293-2.389s117.547 0 158.293 2.389c33.678 0.683 65.637 7.182 95.194 18.527l-1.925-0.649c51.716 20.449 91.892 60.626 111.876 111.010l0.466 1.332c11.221 29.867 17.237 61.355 17.877 93.312 1.835 41.045 2.389 54.059 2.389 158.293-0.085 104.192-0.085 117.419-2.475 158.251zM511.744 251.648c-108.971 0-197.248 88.277-197.248 197.248s88.277 197.248 197.248 197.248c108.937 0 197.248-88.311 197.248-197.248s-88.311-197.248-197.248-197.248v0zM716.843 607.445c-0.013 0-0.028 0-0.043 0-25.379 0-45.952 20.573-45.952 45.952 0 0.015 0 0.030 0 0.045v-0.002c0 25.39 20.583 45.973 45.973 45.973s45.973-20.583 45.973-45.973v0c0-25.429-20.565-45.995-45.952-45.995zM639.872 448.896c0-70.763-57.365-128.128-128.128-128.128s-128.128 57.365-128.128 128.128c0 70.763 57.365 128.128 128.128 128.128s128.128-57.365 128.128-128.128z" />
<glyph unicode="&#xe93b;" glyph-name="bxl-internet-explorer" data-tags="bxl-internet-explorer" d="M859.904 596.736c36.267 86.997 38.656 159.488-4.821 202.965-48.341 48.299-164.352 33.792-287.445-24.107h-14.549c-86.912 0-171.52-31.488-234.325-86.997-53.077-48.341-91.733-111.147-108.672-181.163 12.075 14.379 79.744 94.165 157.013 137.643 2.475 0 21.76 12.075 21.76 12.075-2.432 0-38.613-36.267-45.824-43.52-169.173-173.909-268.16-437.248-190.848-514.517 50.688-50.731 142.507-38.656 248.789 19.285 45.867-21.76 96.64-31.36 152.107-31.36 72.491 0 140.16 19.328 198.101 57.984 60.416 38.656 103.936 98.944 130.517 169.045h-188.416c-24.149-45.867-79.744-77.312-137.685-77.312-82.176 0-149.845 67.669-152.235 144.939v7.211h492.843v7.253c0 12.075 2.432 26.581 2.432 36.181-0.043 58.112-14.549 113.664-38.741 164.395zM205.269 113.579c-38.656 38.656-26.496 113.579 19.328 202.923 21.76-60.416 57.984-113.579 103.893-152.192 14.549-12.032 31.36-24.107 48.341-33.792-77.397-41.088-140.16-48.341-171.563-16.939zM700.459 480.768h-294.699v2.432c4.821 74.923 74.837 140.16 157.056 140.16 77.312 0 140.117-60.416 144.939-140.16v-2.432h-7.296zM847.829 616.064c-15.689 25.92-34.117 48.177-55.343 67.402l-0.252 0.224c-32.578 30.389-71.082 54.928-113.524 71.643l-2.444 0.848c77.355 36.224 142.549 41.003 176.384 7.211 26.581-31.403 24.192-84.523-4.821-147.328 0-2.432 0-2.432 0 0 0-2.432 0-2.432 0 0z" />
<glyph unicode="&#xe93c;" glyph-name="bxl-invision" data-tags="bxl-invision" d="M826.069 831.659h-628.181c-38.443 0-69.547-31.104-69.547-69.547v-628.224c0-38.4 31.104-69.589 69.547-69.589h628.224c38.4 0 69.589 31.147 69.589 69.589v628.224c0 38.41-31.137 69.547-69.547 69.547-0.030 0-0.060 0-0.090 0h0.005zM384.768 682.453c25.472 0 46.848-20.139 46.848-45.995 0-26.283-21.376-46.080-46.848-46.080v-0.939c-25.771 0-46.507 20.736-46.507 46.421 0 25.813 20.736 46.592 46.507 46.592zM698.539 240.768c-47.445 0-70.443 28.245-70.443 66.816 0 11.093 1.408 22.741 4.864 34.645l22.528 81.323c2.901 8.875 3.669 17.28 3.669 24.789 0 26.24-16 41.984-41.429 41.984-32.469 0-53.76-23.168-64.853-68.181l-44.075-176.896h-77.269l13.952 55.595c-22.784-37.248-54.229-60.245-93.141-60.245-47.019 0-68.992 26.965-68.992 67.584 0.205 12.369 1.686 24.282 4.319 35.756l-0.223-1.153 35.243 143.616h-54.528l16.555 61.013h131.2l-51.883-204.971c-3.413-13.184-4.693-23.851-4.693-31.488 0-13.099 6.315-16.896 16.427-19.285 6.229-1.28 55.253-0.469 81.835 58.709l34.048 136.021h-55.211l16.683 59.904h118.912l-15.317-68.992c20.651 38.357 61.952 75.179 102.656 75.179 43.179 0 79.147-31.061 79.147-90.069 0-17.067-2.688-33.963-7.68-50.347l-22.187-79.275c-1.723-6.199-2.87-13.387-3.193-20.788l-0.007-0.204c0-13.909 5.803-20.651 15.701-20.651 10.155 0 23.595 7.723 38.357 50.005l30.208-11.605c-17.664-62.848-50.432-88.789-91.179-88.789z" />
<glyph unicode="&#xe93d;" glyph-name="bxl-javascript" data-tags="bxl-javascript" d="M128 832h768v-768h-768v768zM833.067 247.168c-5.589 35.029-28.416 64.469-96.085 91.947-23.552 11.051-49.707 18.688-57.557 36.437-2.901 10.581-3.328 16.299-1.451 22.571 4.821 20.651 29.312 26.837 48.512 21.12 12.501-3.84 24.021-13.44 31.232-28.843 33.067 21.632 33.067 21.632 56.149 36.011-8.661 13.397-12.971 19.243-18.731 25.003-20.181 22.528-47.061 34.048-90.709 33.067l-22.528-2.859c-21.632-5.291-42.283-16.853-54.741-32.171-36.48-41.301-25.941-113.28 18.219-143.104 43.648-32.64 107.563-39.808 115.712-70.528 7.68-37.461-27.819-49.451-62.933-45.141-25.899 5.803-40.32 18.731-56.149 42.752l-58.539-33.621c6.699-15.317 14.379-22.059 25.899-35.499 55.68-56.149 194.901-53.291 219.861 32.171 0.896 2.859 7.68 22.528 2.389 52.779l1.451-2.091zM545.621 479.019h-71.936c0-61.995-0.299-123.648-0.299-185.771 0-39.424 2.005-75.605-4.437-86.741-10.539-22.059-37.803-19.243-50.133-15.317-12.672 6.229-19.115 14.891-26.581 27.349-2.005 3.328-3.499 6.229-4.053 6.229l-58.368-36.011c9.771-20.181 24.021-37.504 42.411-48.512 27.349-16.341 64.085-21.632 102.571-13.013 25.088 7.253 46.72 22.144 57.941 45.184 16.384 29.739 12.885 66.261 12.757 107.051 0.341 65.749 0 131.541 0 197.76l0.128 1.792z" />
<glyph unicode="&#xe93e;" glyph-name="bxl-joomla" data-tags="bxl-joomla" d="M662.997 360.149l-170.581-170.752c-30.817-30.748-73.353-49.762-120.331-49.762-14.617 0-28.805 1.841-42.343 5.303l1.18-0.256c-11.039-45.795-51.656-79.291-100.097-79.291-56.645 0-102.592 45.803-102.826 102.394v0.022c0 48.555 33.792 89.259 79.019 99.925-3.353 12.631-5.279 27.132-5.279 42.083 0 47.071 19.090 89.684 49.95 120.519l5.761 5.761 75.819-75.861-5.888-5.76c-11.414-11.425-18.473-27.203-18.473-44.629s7.059-33.204 18.474-44.63l-0.001 0.001c11.334-11.577 27.122-18.754 44.587-18.754s33.253 7.177 44.576 18.743l14.902 14.902 155.819 156.032 75.733-75.989zM692.565 147.328c-15.039-4.825-32.34-7.606-50.291-7.606-46.938 0-89.434 19.015-120.206 49.761l0.001-0.001-5.76 5.931 75.648 75.819 5.76-5.931c11.421-11.389 27.181-18.431 44.587-18.431s33.166 7.042 44.588 18.432l-0.001-0.001c11.374 11.38 18.409 27.098 18.409 44.459 0 17.403-7.069 33.156-18.492 44.542l-14.935 14.892-155.733 155.947 75.819 75.776 170.581-170.88c30.933-30.647 50.084-73.138 50.084-120.102 0-14.409-1.803-28.396-5.195-41.749l0.252 1.169c50.155-7.337 88.233-50.059 88.233-101.675 0-56.673-45.906-102.625-102.562-102.699h-0.007c-0.079 0-0.172 0-0.266 0-49.299 0-90.434 34.955-99.973 81.432l-0.113 0.659-0.427 0.256zM351.189 529.707l170.88 170.752c30.687 30.783 73.133 49.829 120.027 49.829 17.281 0 33.958-2.587 49.665-7.394l-1.201 0.316c7.136 50.392 49.982 88.725 101.781 88.725 56.742 0 102.741-45.999 102.741-102.741 0-52.026-38.67-95.020-88.835-101.808l-0.53-0.059c4.255-14.151 6.704-30.412 6.704-47.245 0-46.965-19.066-89.477-49.88-120.219l-0.003-0.003-5.845-5.931-75.819 75.819 5.931 5.888c11.38 11.385 18.418 27.111 18.418 44.48 0 34.749-28.17 62.919-62.919 62.919-17.38 0-33.114-7.047-44.501-18.439v0l-14.805-14.763-155.989-155.819-75.819 75.691zM266.283 445.056l-14.763 14.805c-30.782 30.765-49.822 73.275-49.822 120.232 0 17.455 2.631 34.295 7.518 50.146l-0.32-1.204c-46.099 10.849-79.899 51.602-79.957 100.26v0.007c0.073 56.705 46.033 102.65 102.737 102.699h0.005c51.072 0 93.44-37.333 101.461-86.144 11.716 2.878 25.167 4.528 39.004 4.528 46.978 0 89.512-19.029 120.315-49.799l-0.001 0.001 5.888-5.973-75.861-75.776-5.845 5.803c-11.421 11.353-27.163 18.371-44.544 18.371s-33.123-7.017-44.547-18.374l0.003 0.003c-11.455-11.438-18.541-27.249-18.541-44.715 0-17.381 7.017-33.123 18.373-44.547l-0.003 0.003 14.891-14.933 155.989-155.989-75.733-75.819-156.203 155.989v0.427h-0.043z" />
<glyph unicode="&#xe93f;" glyph-name="bxl-jquery" data-tags="bxl-jquery" d="M142.72 664.107c-74.923-107.648-65.621-247.723-8.363-362.112l4.181-8.107c0.896-1.707 1.749-3.499 2.688-5.163 0.512-1.024 1.109-2.005 1.664-2.944 3.557-6.599 6.359-11.396 9.275-16.116l-0.827 1.438 3.115-5.12c3.841-6.334 6.814-10.927 9.878-15.451l-0.876 1.371c4.007-6.049 7.11-10.483 10.293-14.855l-0.863 1.245 1.536-2.091c2.688-3.755 5.504-7.467 8.363-11.136l3.157-4.011 7.765-9.515 2.944-3.499c3.499-4.139 7.125-8.277 10.752-12.331l0.213-0.213c0.171-0.171 0.299-0.256 0.427-0.469 3.541-3.883 7.253-7.723 10.923-11.563l3.541-3.541 8.747-8.576 3.584-3.413c3.925-3.712 7.936-7.339 11.989-10.923l0.171-0.171 2.091-1.749c3.541-3.115 7.211-6.187 10.88-9.173l4.48-3.584c6.754-5.473 14.605-11.412 22.642-17.106l1.465-0.985c1.237-0.896 2.432-1.792 3.712-2.645l1.024-0.725c3.243-2.261 6.571-4.395 9.856-6.528 1.408-0.939 2.816-1.92 4.309-2.859 10.149-6.631 22.514-13.843 35.221-20.488l2.581-1.229c2.773-1.451 5.504-2.901 8.32-4.309l5.333-2.603c4.352-2.048 8.747-4.139 13.141-6.101l2.816-1.237c5.077-2.219 10.197-4.352 15.36-6.357l3.755-1.493c1.348-0.723 6.742-2.774 12.174-4.748l4.125-1.31c5.333-1.877 10.752-3.627 16.213-5.291l3.925-1.195c5.461-1.664 10.923-3.627 16.64-4.693 362.325-66.048 467.541 217.685 467.541 217.685-88.405-115.115-245.248-145.493-393.899-111.701-5.632 1.28-11.136 3.029-16.64 4.651l-4.139 1.237c-14.165 4.345-24.855 8.174-35.357 12.374l3.144-1.11-3.968 1.536c-5.12 2.005-10.197 4.139-15.189 6.315l-3.029 1.323c-7.431 3.246-11.651 5.246-15.839 7.303l2.996-1.329-3.712 1.792c-3.328 1.621-6.613 3.371-9.899 5.035-2.176 1.152-4.437 2.261-6.613 3.499-5.779 3.063-9.657 5.273-13.489 7.553l1.627-0.897-4.011 2.219c-7.338 4.285-12.393 7.431-17.385 10.667l1.897-1.152-4.181 2.773c-5.379 3.43-8.98 5.849-12.545 8.318l1.494-0.979-3.541 2.517c-3.499 2.475-6.997 4.949-10.411 7.509-5.897 4.417-10.451 7.983-14.943 11.624l0.948-0.744-4.224 3.371c-3.925 3.243-7.851 6.485-11.691 9.856-5.099 4.447-9.53 8.459-13.89 12.547l0.279-0.259c-1.195 1.109-2.347 2.176-3.456 3.328-3.11 2.93-6.002 5.754-8.842 8.628l-0.032 0.033-3.456 3.456c-3.514 3.593-7.049 7.331-10.522 11.127l-0.316 0.35-0.512 0.512c-3.309 3.619-6.905 7.688-10.435 11.815l-0.573 0.686-2.859 3.456c-3.103 3.641-6.651 7.988-10.117 12.402l-0.721 0.953c-2.226 2.807-5.236 6.78-8.188 10.797l-0.986 1.406c-82.517 112.555-112.128 267.819-46.208 395.307zM375.211 754.816c-54.187-77.952-51.2-182.315-8.96-264.747 7.083-13.824 15.061-27.264 23.936-40.021 8.149-11.648 17.109-25.472 27.904-34.816 3.925-4.309 7.979-8.491 12.117-12.587l3.243-3.157c4.011-3.925 8.107-7.765 12.416-11.563l0.469-0.427 0.128-0.085c4.736-4.139 9.557-8.107 14.507-11.989l3.328-2.56c4.196-3.299 9.281-7.055 14.468-10.676l1.148-0.759c2.261-1.579 4.608-3.072 6.869-4.565 1.109-0.725 2.176-1.493 3.328-2.176 2.956-1.979 7.149-4.576 11.407-7.073l1.435-0.778c3.243-1.877 6.613-3.712 9.941-5.547 1.109-0.64 2.347-1.237 3.499-1.835 2.347-1.195 4.608-2.432 6.955-3.541 2.692-1.466 7.809-3.909 12.982-6.248l2.591-1.048 3.157-1.323c3.968-1.664 7.936-3.285 11.989-4.821l4.992-1.877c3.669-1.365 7.296-2.56 10.923-3.797l4.992-1.579c5.163-1.621 10.368-3.627 15.787-4.565 279.723-46.336 344.235 169.003 344.235 169.003-58.197-83.797-170.923-123.819-291.2-92.587-13.122 3.393-23.689 6.78-34.014 10.661l2.313-0.763-5.035 1.835c-7.246 2.725-12.215 4.81-17.12 7.013l2.059-0.827c-7.265 3.121-12.090 5.394-16.857 7.765l2.179-0.981c-2.432 1.195-4.821 2.475-7.253 3.712l-4.224 2.176c-9.637 5.228-17.068 9.655-24.338 14.311l1.597-0.957-3.413 2.261c-9.887 6.464-18.26 12.571-26.318 19.052l0.633-0.492c-52.651 41.557-94.421 98.389-114.261 162.773-20.821 66.816-16.299 141.781 19.712 202.667zM570.837 822.571c-31.957-47.019-35.115-105.344-12.971-157.269 23.381-55.125 71.296-98.304 127.189-118.827 2.14-0.87 5.457-2.018 8.82-3.060l1.164-0.311c3.285-1.024 6.485-2.261 9.941-2.859 154.453-29.824 196.309 79.232 207.445 95.317-36.693-52.864-98.389-65.536-173.995-47.147-15.449 4.129-28.767 9.14-41.438 15.277l1.374-0.6c-14.589 7.106-27.109 14.846-38.762 23.671l0.575-0.417c-67.627 51.371-109.781 149.376-65.536 229.205z" />
<glyph unicode="&#xe940;" glyph-name="bxl-jsfiddle" data-tags="bxl-jsfiddle" d="M835.413 474.667c0.341 4.992 0.768 9.856 0.768 14.933 0 138.368-113.835 250.496-254.251 250.496-0.229 0.001-0.5 0.001-0.772 0.001-99.926 0-186.405-57.579-228.066-141.369l-0.666-1.48c-19.464 15.117-44.243 24.235-71.152 24.235-0.096 0-0.191 0-0.287 0h0.015c-64.896 0-117.419-51.627-117.419-115.371 0-12.075 1.835-23.637 5.333-34.475-50.74-29.657-84.322-83.806-84.48-145.812v-0.023c0-92.715 75.648-168.021 169.6-169.472h507.648c3.157 0 6.4-0.512 9.685-0.512 92.928 0 168.235 74.197 168.235 166.101-0.44 68.798-42.725 127.611-102.663 152.302l-1.103 0.402h-0.427v0.043zM313.813 284.075c-16.173 14.326-27.597 33.687-31.815 55.611l-0.1 0.623c-1.425 6.972-2.248 14.991-2.261 23.2v0.010c0 31.573 11.52 57.472 34.517 77.952 22.912 20.48 52.096 30.805 87.424 30.805 36.437 0 70.571-13.653 100.821-40.832 7.509-6.741 15.019-14.421 21.931-22.869l38.912-45.696c6.741-9.259 13.824-17.024 21.333-23.893 20.096-18.005 41.685-26.965 60.075-26.965 15.573 0 28.587 4.779 38.912 14.336 8.917 8.107 14.336 19.2 15.488 31.147l0.341 5.248c0.002 0.137 0.002 0.299 0.002 0.461 0 5.133-0.86 10.065-2.444 14.66l0.095-0.316c-7.828 21.054-27.752 35.781-51.115 35.781-0.6 0-1.198-0.010-1.793-0.029l0.087 0.002c-19.328 0-38.485-6.528-59.563-26.923l-34.432 40.533-3.755 4.608c30.421 29.483 60.331 40.533 100.992 40.533 35.755 0 65.067-10.112 86.912-30.379l0.597-0.597c22.997-20.224 34.176-46.464 34.176-78.592 0.003-0.317 0.005-0.692 0.005-1.067 0-7.594-0.763-15.009-2.216-22.174l0.121 0.712c-4.54-22.186-15.782-41.229-31.486-55.431l-0.088-0.078c-16.348-15.009-37.197-25.357-60.3-28.808l-0.628-0.077c-7.483-1.032-16.129-1.621-24.914-1.621-0.061 0-0.123 0-0.184 0h0.010c-36.821 0-71.509 13.355-100.907 40.021-8.249 7.541-15.751 15.571-22.588 24.154l-0.324 0.422-38.997 45.44c-6.322 8.983-13.168 16.845-20.739 23.944l-0.083 0.077c-19.755 18.133-41.685 26.709-60.928 26.709-5.504 0-11.093-0.768-16.597-2.176-8.722-2.283-16.246-6.57-22.337-12.352l0.022 0.021c-9.899-9.216-15.573-22.187-15.573-35.797 0-13.824 4.821-25.6 15.019-35.2l0.597-0.555c10.667-9.685 24.021-14.421 39.509-14.421 19.755 0 38.997 6.912 59.733 27.264l34.176-40.021 3.755-4.224c-30.933-29.995-60.928-41.173-99.925-41.173-35.755 0-65.067 10.155-87.509 30.421l-1.963-2.432z" />
<glyph unicode="&#xe941;" glyph-name="bxl-kickstarter" data-tags="bxl-kickstarter" d="M435.115 570.581l141.184 204.757c26.795 38.485 61.184 57.771 103.552 57.771 34.389 0 64.256-12.245 89.472-36.736 25.173-24.491 37.76-53.76 37.76-87.851 0-25.173-6.613-47.488-20.011-66.688l-127.275-185.173 155.691-197.419c15.488-19.669 23.339-42.667 23.339-68.992 0-34.816-12.203-64.768-36.693-89.813-21.903-23.126-52.827-37.518-87.113-37.518-0.634 0-1.268 0.005-1.9 0.015l0.095-0.001c-38.187 0-67.285 12.416-87.339 37.248l-190.677 237.995v-131.157c0-37.504-6.485-66.603-19.499-87.424-23.68-37.76-57.856-56.661-103.125-56.661-41.088 0-73.003 13.995-95.573 41.685-21.163 25.685-31.744 59.563-31.744 101.845v486.528c0 39.936 10.795 72.917 32.213 98.901 22.4 27.435 53.547 41.173 93.269 41.173 37.845 0 69.291-13.739 94.549-41.173 14.037-15.232 22.912-30.592 26.667-46.165 2.261-9.685 3.371-27.563 3.371-54.016v-121.173h-0.213z" />
</font>
</defs>
</svg>
